<?xml version="1.0" standalone="no"?>
<!DOCTYPE svg PUBLIC "-//W3C//DTD SVG 1.1//EN" "http://www.w3.org/Graphics/SVG/1.1/DTD/svg11.dtd" >
<svg xmlns="http://www.w3.org/2000/svg" xmlns:xlink="http://www.w3.org/1999/xlink" version="1.1">
<metadata>
Created by FontForge 20170731 at Fri Oct  2 22:50:28 2015
 By Aleksey,,,
Copyright (c) 2015 Dan Reynolds. Copyright (c) 2015 Mathieu Re'guer.
</metadata>
<defs>
<font id="Biryani-Light" horiz-adv-x="281" >
  <font-face 
    font-family="Biryani Light"
    font-weight="300"
    font-stretch="normal"
    units-per-em="1000"
    panose-1="0 0 4 0 0 0 0 0 0 0"
    ascent="800"
    descent="-200"
    x-height="549"
    cap-height="758"
    bbox="-1262 -576 2197 1109"
    underline-thickness="50"
    underline-position="-150"
    unicode-range="U+000D-FB02"
  />
<missing-glyph horiz-adv-x="600" 
 />
    <glyph glyph-name="fi" unicode="fi" horiz-adv-x="580" 
d="M39 0zM194 773.5q-13 -14.5 -13 -55.5v-169h110v-70h-110v-479h-74v479h-68v70h68v184q0 70 30.5 98t101.5 28q24 0 52 -6v-69q-20 4 -48 4q-36 0 -49 -14.5zM411 808h74v-151h-74v151zM411 549h74v-549h-74v549z" />
    <glyph glyph-name="fl" unicode="fl" horiz-adv-x="620" 
d="M39 0zM194 773.5q-13 -14.5 -13 -55.5v-169h110v-70h-110v-479h-74v479h-68v70h68v184q0 70 30.5 98t101.5 28q24 0 52 -6v-69q-20 4 -48 4q-36 0 -49 -14.5zM441 15q-30 28 -30 98v733h74v-717q0 -41 13 -56t49 -15q28 0 48 4v-69q-29 -6 -52 -6q-72 0 -102 28z" />
    <glyph glyph-name=".notdef" horiz-adv-x="600" 
 />
    <glyph glyph-name=".null" horiz-adv-x="0" 
 />
    <glyph glyph-name="nonmarkingreturn" unicode="&#xd;" horiz-adv-x="600" 
 />
    <glyph glyph-name="space" unicode=" " horiz-adv-x="220" 
 />
    <glyph glyph-name="exclam" unicode="!" horiz-adv-x="284" 
d="M96 758h92l-14 -528h-64zM100 154h84v-154h-84v154z" />
    <glyph glyph-name="quotedbl" unicode="&#x22;" horiz-adv-x="454" 
d="M106 456zM106 758h72v-302h-72v302zM276 758h72v-302h-72v302z" />
    <glyph glyph-name="numbersign" unicode="#" horiz-adv-x="703" 
d="M524 429l-24 -184h112v-70h-121l-23 -175h-72l22 175h-176l-23 -175h-72l22 175h-109v70h118l24 184h-112v70h121l23 175h72l-22 -175h176l23 175h72l-22 -175h109v-70h-118zM451 429h-176l-24 -184h176z" />
    <glyph glyph-name="dollar" unicode="$" horiz-adv-x="592" 
d="M453.5 41.5q-51.5 -49.5 -143.5 -57.5v-80h-71v80q-50 4 -94 16.5t-92 35.5v73q91 -48 186 -56v252l-8 3q-79 22 -124 63t-45 125q0 86 47 134.5t134 56.5v71h71v-72q42 -4 76.5 -14.5t77.5 -31.5v-72q-77 41 -154 49v-253l22 -6q82 -22 126 -63t44 -123
q-1 -81 -52.5 -130.5zM166 425q26 -25 77 -41v234q-53 -6 -78.5 -38.5t-25.5 -82.5q1 -47 27 -72zM397.5 243.5q-31.5 25.5 -87.5 41.5v-232q62 7 90.5 38.5t28.5 80.5q0 46 -31.5 71.5z" />
    <glyph glyph-name="percent" unicode="%" horiz-adv-x="1017" 
d="M689 773h72l-417 -806h-72zM138 332q-45 26 -70.5 71t-25.5 98t25.5 98t70.5 71t99 26q55 0 99.5 -26t70 -71t25.5 -98t-25.5 -98t-70 -71t-99.5 -26q-54 0 -99 26zM327.5 406.5q34.5 38.5 34.5 94.5t-34.5 94t-90.5 38q-55 0 -90.5 -38t-35.5 -94t35.5 -94.5t90.5 -38.5
q56 0 90.5 38.5zM681 9q-45 26 -70.5 71t-25.5 98t25.5 98t70.5 71t99 26q55 0 99.5 -26t70 -71t25.5 -98t-25.5 -98t-70 -71t-99.5 -26q-54 0 -99 26zM870.5 83.5q34.5 38.5 34.5 94.5q0 57 -34.5 94.5t-90.5 37.5q-55 0 -90.5 -38t-35.5 -94t35.5 -94.5t90.5 -38.5
q56 0 90.5 38.5z" />
    <glyph glyph-name="ampersand" unicode="&#x26;" horiz-adv-x="814" 
d="M784 71v-71h-35q-95 0 -209 86q-50 -49 -109.5 -76t-124.5 -27q-79 0 -134.5 29.5t-83.5 80t-28 112.5q0 54 22 94.5t54.5 69t84.5 62.5q-38 50 -57.5 90.5t-19.5 89.5q0 75 48.5 121.5t126.5 46.5q76 0 122.5 -43t46.5 -114q0 -94 -128 -179l-40 -26q41 -53 100 -117
t116 -115q41 61 64 141.5t24 171.5h78q0 -99 -30 -192t-84 -165q91 -70 162 -70h34zM246.5 685.5q-24.5 -26.5 -24.5 -74.5q0 -38 13.5 -71t42.5 -72l48 32q84 54 84 123q0 41 -23 65t-68 24q-48 0 -72.5 -26.5zM157 129q19 -35 57 -56t92 -21q103 0 183 77q-95 89 -228 248
q-62 -41 -92.5 -78t-30.5 -93q0 -42 19 -77z" />
    <glyph glyph-name="quotesingle" unicode="'" horiz-adv-x="284" 
d="M106 758h72v-302h-72v302z" />
    <glyph glyph-name="parenleft" unicode="(" horiz-adv-x="336" 
d="M109 67.5q-53 115.5 -53 291.5t53 291.5t123 196.5l51 -37q-37 -50 -67.5 -105t-55 -143.5t-24.5 -202.5t24.5 -202.5t55 -143.5t67.5 -105l-51 -37q-70 81 -123 196.5z" />
    <glyph glyph-name="parenright" unicode=")" horiz-adv-x="336" 
d="M53 -92q37 50 67.5 105t55 143.5t24.5 202.5t-24.5 202.5t-55 143.5t-67.5 105l51 37q70 -81 123 -196.5t53 -291.5t-53 -291.5t-123 -196.5z" />
    <glyph glyph-name="asterisk" unicode="*" horiz-adv-x="618" 
d="M356 623l185 -94l-34 -59l-175 112l11 -207h-68l11 207l-175 -112l-34 59l186 94l-186 95l34 59l175 -113l-11 208h68l-11 -208l175 113l34 -59z" />
    <glyph glyph-name="plus" unicode="+" horiz-adv-x="550" 
d="M483 302h-172v-173l-72 -1v174h-172v70h172v172l72 1v-173h172v-70z" />
    <glyph glyph-name="comma" unicode="," horiz-adv-x="284" 
d="M127 156h80l-69 -307h-71z" />
    <glyph glyph-name="hyphen" unicode="-" horiz-adv-x="454" 
d="M80 332h294v-72h-294v72z" />
    <glyph glyph-name="period" unicode="." horiz-adv-x="284" 
d="M100 156h84v-156h-84v156z" />
    <glyph glyph-name="slash" unicode="/" horiz-adv-x="404" 
d="M319 931h76l-311 -1108h-76z" />
    <glyph glyph-name="zero" unicode="0" horiz-adv-x="550" 
d="M113 70.5q-53 87.5 -53 265.5q0 352 215 352q105 0 160 -89.5t55 -262.5q0 -176 -55 -264.5t-160 -88.5q-109 0 -162 87.5zM376.5 123q35.5 71 35.5 218q0 138 -36 208t-101 70q-69 0 -103 -70t-34 -213q0 -146 34 -215t103 -69q66 0 101.5 71z" />
    <glyph glyph-name="one" unicode="1" horiz-adv-x="550" 
d="M442 71v-71h-331v71h128v532h-108v71h184v-603h127z" />
    <glyph glyph-name="two" unicode="2" horiz-adv-x="550" 
d="M59 71l17 16q132 122 192 182t92 112.5t32 105.5q0 64 -36.5 98t-99.5 34q-92 0 -172 -41v73q83 37 179 37q92 0 149.5 -51t57.5 -146q0 -62 -31.5 -119.5t-79 -108.5t-133.5 -131l-65 -61h337v-71h-439v71z" />
    <glyph glyph-name="three" unicode="3" horiz-adv-x="550" 
d="M448.5 294q31.5 -45 31.5 -109q0 -93 -59.5 -147.5t-161.5 -54.5q-97 0 -179 35v73q37 -19 82.5 -29t89.5 -10q72 0 111 36.5t39 102.5q0 65 -43.5 98.5t-125.5 33.5h-73v68h73q78 0 118.5 29.5t40.5 87.5q0 53 -36 82t-102 29q-41 0 -84.5 -8.5t-79.5 -26.5v73
q74 31 169 31q97 0 154 -47t57 -127q0 -57 -28.5 -95t-85.5 -61q61 -19 92.5 -64z" />
    <glyph glyph-name="four" unicode="4" horiz-adv-x="550" 
d="M535 155h-115v-172h-76v172h-317v69l307 459h86v-459h115v-69zM344 224v347l-235 -347h235z" />
    <glyph glyph-name="five" unicode="5" horiz-adv-x="550" 
d="M422.5 371q62.5 -60 62.5 -159q0 -110 -65 -169.5t-180 -59.5q-89 0 -163 29v72q76 -32 160 -32q83 0 126.5 40t43.5 120q0 73 -44 111.5t-123 38.5q-40 0 -80 -8.5t-72 -21.5l7 342h351v-71h-277l-4 -180q40 8 82 8q113 0 175.5 -60z" />
    <glyph glyph-name="six" unicode="6" horiz-adv-x="550" 
d="M398 393q48 -27 74 -76t26 -113q0 -66 -28 -116t-76.5 -77.5t-108.5 -27.5q-108 0 -167 68t-59 192q0 134 77.5 246.5t217.5 196.5l46 -52q-88 -56 -148 -118t-89 -135q58 39 124 39q63 0 111 -27zM381.5 91q38.5 41 38.5 111t-39.5 111t-100.5 41q-80 0 -139 -54
q-4 -25 -4 -60q1 -97 40 -143.5t107 -46.5q59 0 97.5 41z" />
    <glyph glyph-name="seven" unicode="7" horiz-adv-x="550" 
d="M505 674v-71l-258 -620h-84l266 620h-353v71h429z" />
    <glyph glyph-name="eight" unicode="8" horiz-adv-x="550" 
d="M465.5 282.5q31.5 -45.5 31.5 -105.5q0 -58 -29 -102t-79.5 -68t-113.5 -24t-113.5 24t-79.5 68t-29 102q0 60 31.5 105.5t85.5 68.5q-44 23 -69.5 64t-25.5 92t26 92.5t71.5 65t102.5 23.5q56 0 101.5 -23.5t72 -65t26.5 -92.5t-26 -92t-70 -64q55 -23 86.5 -68.5z
M188.5 587.5q-35.5 -33.5 -35.5 -84.5q0 -52 35.5 -85t86.5 -33q52 0 87 33t35 85q0 51 -35 84.5t-87 33.5q-51 0 -86.5 -33.5zM378 85.5q41 35.5 41 95.5t-41 95.5t-103 35.5t-103 -35.5t-41 -95.5t41 -95.5t103 -35.5t103 35.5z" />
    <glyph glyph-name="nine" unicode="9" horiz-adv-x="550" 
d="M432 619.5q59 -68.5 59 -191.5q0 -134 -77.5 -246.5t-218.5 -196.5l-45 52q88 56 147.5 118t88.5 135q-55 -39 -123 -39q-63 0 -111 27t-74 76t-26 113q0 66 27.5 116t76 77.5t109.5 27.5q108 0 167 -68.5zM345.5 330.5q35.5 14.5 62.5 40.5q5 32 5 60q-1 96 -40.5 143
t-107.5 47q-59 0 -97 -41t-38 -111t39.5 -111.5t100.5 -41.5q40 0 75.5 14.5z" />
    <glyph glyph-name="colon" unicode=":" horiz-adv-x="284" 
d="M100 0zM100 156h84v-156h-84v156zM100 551h84v-156h-84v156z" />
    <glyph glyph-name="semicolon" unicode=";" horiz-adv-x="284" 
d="M67 0zM127 156h80l-69 -307h-71zM100 551h84v-156h-84v156z" />
    <glyph glyph-name="less" unicode="&#x3c;" horiz-adv-x="550" 
d="M152 336l318 -187l-36 -59l-367 217v59l368 218l35 -61z" />
    <glyph glyph-name="equal" unicode="=" horiz-adv-x="550" 
d="M67 472h416v-70h-416v70zM67 272h416v-70h-416v70z" />
    <glyph glyph-name="greater" unicode="&#x3e;" horiz-adv-x="550" 
d="M80 90zM398 336l-318 -187l36 -59l367 217v59l-368 218l-35 -61z" />
    <glyph glyph-name="question" unicode="?" horiz-adv-x="542" 
d="M208 272q0 42 11.5 71t29.5 49t51 49l31 26q31 28 43.5 51.5t12.5 56.5q0 61 -36 94.5t-98 33.5q-92 0 -174 -41v73q83 37 177 37q92 0 150.5 -50.5t58.5 -143.5q0 -54 -20.5 -89.5t-58.5 -68.5l-28 -24q-30 -27 -44.5 -43t-22 -35.5t-7.5 -48.5v-39h-76v42zM204 154h84
v-154h-84v154z" />
    <glyph glyph-name="at" unicode="@" horiz-adv-x="986" 
d="M632 158q-7 -22 -7 -41q0 -23 15 -33t50 -10q52 0 89.5 37t56.5 97t19 129q0 156 -88 240.5t-245 84.5q-104 0 -193.5 -55.5t-143.5 -154.5t-54 -224q0 -114 39.5 -199.5t119 -133t196.5 -47.5q68 0 129.5 18.5t129.5 54.5l23 -58q-74 -37 -139 -56t-143 -19
q-124 0 -219.5 51.5t-149 151t-53.5 237.5q0 144 62 256.5t167 175t229 62.5q122 0 212.5 -47t139 -134t48.5 -204q0 -94 -30 -167.5t-84 -114.5t-123 -41q-57 0 -88.5 20.5t-36.5 59.5q-61 -67 -132 -67q-69 0 -109 41t-40 121q0 88 33 161t89 114.5t123 41.5q86 0 122 -69
l16 53h68zM629 379q-41 63 -102 63q-51 0 -91.5 -36.5t-63.5 -94.5t-24 -120q0 -55 20.5 -77.5t64.5 -22.5q39 0 74.5 24.5t64.5 67.5z" />
    <glyph glyph-name="A" unicode="A" horiz-adv-x="711" 
d="M515 237h-320l-89 -237h-80l290 767h78l291 -767h-80zM488 308l-133 353l-133 -353h266z" />
    <glyph glyph-name="B" unicode="B" horiz-adv-x="699" 
d="M626 204q0 -103 -61 -153.5t-203 -50.5h-249v758h249q129 0 181.5 -49.5t52.5 -153.5q0 -123 -105 -170q135 -44 135 -181zM190 414h172q78 0 116.5 34.5t38.5 106.5q0 73 -34.5 104.5t-120.5 31.5h-172v-277zM500.5 313.5q-46.5 33.5 -138.5 33.5h-172v-280h172
q102 0 143.5 33.5t41.5 107.5q0 72 -46.5 105.5z" />
    <glyph glyph-name="C" unicode="C" horiz-adv-x="705" 
d="M225 32.5q-82 49.5 -122.5 138.5t-40.5 207q0 112 40 201t121.5 141t202.5 52q53 0 94.5 -8.5t89.5 -28.5v-73q-83 41 -183 41q-89 0 -154 -41.5t-99 -115.5t-34 -168q1 -97 34.5 -170.5t97.5 -114.5t154 -41q55 0 107.5 15t110.5 43l26 -66q-58 -30 -122 -45.5
t-122 -15.5q-119 0 -201 49.5z" />
    <glyph glyph-name="D" unicode="D" horiz-adv-x="795" 
d="M636.5 661.5q92.5 -96.5 92.5 -283.5q0 -188 -92 -283t-275 -95h-249v758h249q182 0 274.5 -96.5zM578.5 144q72.5 75 72.5 237q0 158 -73.5 233t-215.5 75h-172v-620h172q144 0 216.5 75z" />
    <glyph glyph-name="E" unicode="E" horiz-adv-x="628" 
d="M568 69v-69h-455v758h450v-69h-373v-273h323v-69h-323v-278h378z" />
    <glyph glyph-name="F" unicode="F" horiz-adv-x="611" 
d="M190 687v-282h323v-71h-323v-334h-77v758h450v-71h-373z" />
    <glyph glyph-name="G" unicode="G" horiz-adv-x="776" 
d="M687 463v-410q-60 -34 -130 -52t-131 -18q-118 0 -200 49.5t-123 138.5t-41 207q0 112 39.5 201t121.5 141t203 52q66 0 111.5 -12.5t102.5 -37.5v-76q-51 28 -100.5 42.5t-113.5 14.5q-89 0 -153.5 -41t-98.5 -114t-34 -167q0 -98 33.5 -172t98 -115.5t154.5 -41.5
q47 0 92 11.5t93 32.5v296h-306v71h382z" />
    <glyph glyph-name="H" unicode="H" horiz-adv-x="782" 
d="M669 758v-758h-77v346h-402v-346h-77v758h77v-342h402v342h77z" />
    <glyph glyph-name="I" unicode="I" horiz-adv-x="303" 
d="M113 758h77v-758h-77v758z" />
    <glyph glyph-name="J" unicode="J" horiz-adv-x="308" 
d="M9 -93v70q20 -4 48 -4q25 0 37.5 8.5t18 32t5.5 69.5v675h77v-681q0 -71 -12 -108t-40.5 -52t-83.5 -15q-27 0 -50 5z" />
    <glyph glyph-name="K" unicode="K" horiz-adv-x="674" 
d="M246 359l-56 -57v-302h-77v758h77v-354l344 354h98l-332 -343l337 -415h-100z" />
    <glyph glyph-name="L" unicode="L" horiz-adv-x="558" 
d="M518 71v-71h-405v758h77v-687h328z" />
    <glyph glyph-name="M" unicode="M" horiz-adv-x="913" 
d="M800 758v-758h-77v638l-246 -341h-41l-246 341v-638h-77v758h82l262 -363l262 363h81z" />
    <glyph glyph-name="N" unicode="N" horiz-adv-x="782" 
d="M669 758v-758h-80l-399 625v-625h-77v758h81l398 -625v625h77z" />
    <glyph glyph-name="O" unicode="O" horiz-adv-x="832" 
d="M222 34.5q-80 51.5 -120 141t-40 202.5q0 111 40 200t120 141.5t195 52.5q113 0 193 -52.5t120.5 -142t40.5 -199.5q0 -113 -40.5 -202.5t-120.5 -141t-193 -51.5q-115 0 -195 51.5zM565 95q62 43 94.5 118t32.5 168q0 90 -32.5 163t-95 116t-147.5 43q-88 0 -150.5 -43
t-94 -117t-31.5 -165q0 -93 31.5 -167t94 -116.5t150.5 -42.5q86 0 148 43z" />
    <glyph glyph-name="P" unicode="P" horiz-adv-x="651" 
d="M606 538q0 -106 -59.5 -161.5t-177.5 -55.5h-179v-321h-77v758h256q237 0 237 -220zM487.5 653.5q-39.5 35.5 -118.5 35.5h-179v-300h179q158 0 158 152q0 77 -39.5 112.5z" />
    <glyph glyph-name="Q" unicode="Q" horiz-adv-x="832" 
d="M740 197.5q-31 -81.5 -92 -134.5l112 -127h-95l-75 87q-74 -40 -173 -40q-115 0 -195 51.5t-120 141t-40 202.5q0 111 40 200t120 141.5t195 52.5q113 0 193 -52.5t120.5 -142t40.5 -199.5q0 -99 -31 -180.5zM172.5 211q31.5 -74 94 -116.5t150.5 -42.5q68 0 124 28
l-135 157h91l100 -115q46 44 70.5 111t24.5 148q0 90 -32.5 163t-95 116t-147.5 43q-88 0 -150.5 -43t-94 -117t-31.5 -165q0 -93 31.5 -167z" />
    <glyph glyph-name="R" unicode="R" horiz-adv-x="698" 
d="M352 332h-162v-332h-77v758h256q237 0 237 -214q0 -88 -42.5 -140.5t-128.5 -66.5l209 -337h-88zM190 401h179q158 0 158 146q0 74 -39.5 108t-118.5 34h-179v-288z" />
    <glyph glyph-name="S" unicode="S" horiz-adv-x="636" 
d="M64 37v73q111 -58 254 -58q89 0 130.5 38t42.5 101q0 59 -39 89.5t-109 50.5l-68 19q-57 17 -97.5 38.5t-67 63t-26.5 106.5q0 105 60.5 159.5t170.5 54.5q65 0 115 -12t102 -37v-72q-101 52 -217 52q-78 0 -115.5 -38.5t-37.5 -104.5q1 -60 36.5 -89.5t105.5 -48.5
l69 -19q60 -16 102 -39t68 -64.5t26 -107.5q-1 -97 -67.5 -153t-183.5 -56q-142 0 -254 54z" />
    <glyph glyph-name="T" unicode="T" horiz-adv-x="624" 
d="M584 687h-234v-687h-76v687h-234v71h544v-71z" />
    <glyph glyph-name="U" unicode="U" horiz-adv-x="775" 
d="M178.5 54q-69.5 71 -69.5 202v502h77v-502q0 -101 50.5 -152.5t151.5 -51.5q100 0 150.5 51.5t50.5 152.5v502h77v-502q0 -131 -69 -202t-209 -71t-209.5 71z" />
    <glyph glyph-name="V" unicode="V" horiz-adv-x="727" 
d="M693 758l-290 -767h-78l-291 767h81l249 -660l248 660h81z" />
    <glyph glyph-name="W" unicode="W" horiz-adv-x="1073" 
d="M1036 758l-227 -767h-78l-194 647l-194 -647h-78l-227 767h79l187 -652l190 652h85l191 -653l186 653h80z" />
    <glyph glyph-name="X" unicode="X" horiz-adv-x="724" 
d="M590 0l-226 336l-227 -336h-91l269 390l-251 368h90l210 -312l210 312h90l-251 -368l268 -390h-91z" />
    <glyph glyph-name="Y" unicode="Y" horiz-adv-x="708" 
d="M392 293v-293h-76v293l-283 465h80l241 -400l242 400h80z" />
    <glyph glyph-name="Z" unicode="Z" horiz-adv-x="713" 
d="M636 71v-71h-556v69l431 618h-418v71h510v-69l-430 -618h463z" />
    <glyph glyph-name="bracketleft" unicode="[" horiz-adv-x="327" 
d="M272 -58v-71h-162v976h157v-71h-81v-834h86z" />
    <glyph glyph-name="backslash" unicode="\" horiz-adv-x="404" 
d="M8 931h76l311 -1108h-76z" />
    <glyph glyph-name="bracketright" unicode="]" horiz-adv-x="327" 
d="M217 -129h-161v71h85v834h-82v71h158v-976z" />
    <glyph glyph-name="asciicircum" unicode="^" horiz-adv-x="550" 
d="M462 133l-187 318l-187 -318l-60 37l218 366h58l218 -368z" />
    <glyph glyph-name="underscore" unicode="_" horiz-adv-x="500" 
d="M0 -77h500v-71h-500v71z" />
    <glyph glyph-name="grave" unicode="`" horiz-adv-x="649" 
d="M181 809h90l106 -153h-75z" />
    <glyph glyph-name="a" unicode="a" horiz-adv-x="514" 
d="M377.5 519.5q42.5 -29.5 57 -79t14.5 -124.5v-316h-74v57q-40 -37 -78.5 -53.5t-82.5 -16.5q-49 0 -90 22.5t-65.5 64.5t-24.5 100q0 90 56 139.5t150 49.5q34 0 69.5 -8.5t65.5 -24.5q-1 54 -11 86t-39 49.5t-87 17.5h-64v66h79q82 0 124.5 -29.5zM375 123v144
q-57 30 -128 30q-58 0 -97.5 -28.5t-39.5 -94.5q0 -63 33.5 -91.5t76.5 -28.5q79 0 155 69z" />
    <glyph glyph-name="b" unicode="b" horiz-adv-x="634" 
d="M507 491q66 -74 66 -217q0 -142 -66 -216.5t-176 -74.5q-81 0 -162 71v-54h-74v846h74v-351q80 70 162 70q110 0 176 -74zM453 110q43 56 43 164t-43.5 164.5t-127.5 56.5q-78 0 -156 -68v-306q77 -67 156 -67q85 0 128 56z" />
    <glyph glyph-name="c" unicode="c" horiz-adv-x="546" 
d="M130 63q-68 79 -68 213q0 133 68 211t195 78q43 0 75 -6t68 -21v-74q-37 17 -69.5 24t-70.5 7q-99 -1 -144 -60t-45 -158q0 -101 44.5 -161.5t143.5 -61.5q74 0 159 41l25 -65q-89 -47 -186 -47q-127 1 -195 80z" />
    <glyph glyph-name="d" unicode="d" horiz-adv-x="634" 
d="M539 846v-846h-74v54q-81 -71 -162 -71q-110 0 -175.5 74.5t-65.5 217.5q0 142 65.5 216t175.5 74q82 0 162 -70v351h74zM465 121v306q-78 68 -155 68q-84 0 -127.5 -56t-43.5 -164q0 -109 43 -165t128 -56q78 0 155 67z" />
    <glyph glyph-name="e" unicode="e" horiz-adv-x="578" 
d="M139 277q0 -101 46 -163t147 -62q73 0 162 41l24 -64q-88 -46 -190 -46q-127 0 -196.5 80t-69.5 213q0 92 32 157t87.5 98.5t124.5 33.5q105 0 165 -66t61 -191v-29h-393v-2zM198.5 458.5q-42.5 -37.5 -54.5 -112.5h310q-6 77 -42 113.5t-106 36.5q-65 0 -107.5 -37.5z
" />
    <glyph glyph-name="f" unicode="f" horiz-adv-x="316" 
d="M194 773.5q-13 -14.5 -13 -55.5v-169h110v-70h-110v-479h-74v479h-68v70h68v184q0 70 30.5 98t101.5 28q24 0 52 -6v-69q-20 4 -48 4q-36 0 -49 -14.5z" />
    <glyph glyph-name="g" unicode="g" horiz-adv-x="614" 
d="M539 549v-564q0 -74 -19 -125t-69.5 -81t-141.5 -30q-59 0 -101.5 8t-90.5 28v77q43 -20 87 -31t83 -11q78 0 116.5 20t50 56.5t11.5 98.5v79q-83 -71 -162 -71q-72 0 -126.5 32.5t-85 96t-30.5 153.5q0 137 66 208.5t176 71.5q80 0 162 -70v54h74zM465 141v286
q-78 68 -156 68q-83 0 -127 -56t-44 -154q0 -101 43.5 -156t127.5 -55q79 0 156 67z" />
    <glyph glyph-name="h" unicode="h" horiz-adv-x="625" 
d="M487.5 508.5q47.5 -52.5 47.5 -176.5v-332h-74v332q0 87 -28 123t-99 36q-84 0 -165 -73v-418h-74v846h74v-359q39 35 83 54.5t88 19.5q100 0 147.5 -52.5z" />
    <glyph glyph-name="i" unicode="i" horiz-adv-x="264" 
d="M95 808h74v-151h-74v151zM95 549h74v-549h-74v549z" />
    <glyph glyph-name="j" unicode="j" horiz-adv-x="264" 
d="M95 808h74v-151h-74v151zM-15 -245v69q20 -4 48 -4q25 0 38 8.5t18.5 30t5.5 65.5v626h74v-642q0 -62 -12 -96t-40.5 -48.5t-79.5 -14.5q-24 0 -52 6z" />
    <glyph glyph-name="k" unicode="k" horiz-adv-x="565" 
d="M233 272l-64 -65v-207h-74v846h74v-543l239 243h94l-218 -222l255 -324h-92z" />
    <glyph glyph-name="l" unicode="l" horiz-adv-x="304" 
d="M125 15q-30 28 -30 98v733h74v-717q0 -41 13 -56t49 -15q28 0 48 4v-69q-29 -6 -52 -6q-72 0 -102 28z" />
    <glyph glyph-name="m" unicode="m" horiz-adv-x="964" 
d="M848 508.5q47 -52.5 47 -176.5v-332h-74v332q0 87 -28 123t-98 36q-86 0 -168 -84q5 -37 5 -75v-332h-74v332q0 87 -28 123t-98 36q-83 0 -163 -73v-418h-74v549h74v-62q38 34 82 54t88 20q66 0 108.5 -22.5t63.5 -72.5q42 44 91 69.5t100 25.5q99 0 146 -52.5z" />
    <glyph glyph-name="n" unicode="n" horiz-adv-x="625" 
d="M487.5 508.5q47.5 -52.5 47.5 -176.5v-332h-74v332q0 87 -28 123t-99 36q-84 0 -165 -73v-418h-74v549h74v-62q39 35 83 54.5t88 19.5q100 0 147.5 -52.5z" />
    <glyph glyph-name="o" unicode="o" horiz-adv-x="653" 
d="M181.5 21.5q-59.5 38.5 -89.5 104.5t-30 149q0 82 30 148t89.5 104t145.5 38t145.5 -38t89.5 -104t30 -148q0 -83 -30 -149t-89.5 -104.5t-145.5 -38.5t-145.5 38.5zM465.5 115q49.5 62 49.5 160q0 97 -49.5 159t-138.5 62t-138.5 -62t-49.5 -159q0 -98 49.5 -160
t138.5 -62t138.5 62z" />
    <glyph glyph-name="p" unicode="p" horiz-adv-x="634" 
d="M507 491q66 -74 66 -217q0 -142 -66 -216.5t-176 -74.5q-81 0 -162 71v-288h-74v783h74v-54q80 70 162 70q110 0 176 -74zM453 110q43 56 43 164t-43.5 164.5t-127.5 56.5q-78 0 -156 -68v-306q77 -67 156 -67q85 0 128 56z" />
    <glyph glyph-name="q" unicode="q" horiz-adv-x="634" 
d="M539 549v-783h-74v288q-81 -71 -162 -71q-110 0 -175.5 74.5t-65.5 217.5q0 142 65.5 216t175.5 74q82 0 162 -70v54h74zM465 121v306q-78 68 -155 68q-84 0 -127.5 -56t-43.5 -164q0 -109 43 -165t128 -56q78 0 155 67z" />
    <glyph glyph-name="r" unicode="r" horiz-adv-x="393" 
d="M363 561v-70h-23q-88 0 -171 -74v-417h-74v549h74v-64q39 36 83 56t88 20h23z" />
    <glyph glyph-name="s" unicode="s" horiz-adv-x="501" 
d="M148.5 -7q-45.5 10 -94.5 33v78q91 -52 198 -52q60 0 87.5 26t27.5 67t-22.5 60t-71.5 33l-58 15q-67 17 -106.5 52.5t-39.5 108.5q0 70 46 110.5t135 40.5q49 0 88 -9t79 -27v-73q-40 19 -77 29.5t-88 10.5q-57 0 -82 -23.5t-25 -57.5q0 -40 23 -59.5t68 -31.5l58 -15
q48 -13 79.5 -29.5t50.5 -48.5t19 -85q0 -78 -52 -120.5t-139 -42.5q-58 0 -103.5 10z" />
    <glyph glyph-name="t" unicode="t" horiz-adv-x="356" 
d="M183 475v-346q0 -41 13 -56t49 -15q30 0 65 8v-70q-37 -9 -73 -9q-50 0 -77.5 13t-39 41t-11.5 77v357h-70v71h70v190h74v-190h128v-71h-128z" />
    <glyph glyph-name="u" unicode="u" horiz-adv-x="625" 
d="M530 549v-549h-74v63q-38 -35 -82 -55t-89 -20q-100 0 -147.5 53t-47.5 177v331h74v-331q0 -87 28 -123t100 -36q84 0 164 73v417h74z" />
    <glyph glyph-name="v" unicode="v" horiz-adv-x="552" 
d="M532 549l-217 -558h-78l-217 558h78l178 -464l178 464h78z" />
    <glyph glyph-name="w" unicode="w" horiz-adv-x="837" 
d="M815 549l-176 -558h-75l-145 446l-145 -446h-75l-177 558h78l136 -453l141 453h83l141 -453l136 453h78z" />
    <glyph glyph-name="x" unicode="x" horiz-adv-x="571" 
d="M442 0l-160 228l-153 -228h-91l198 287l-188 262h91l147 -210l149 210h89l-193 -269l202 -280h-91z" />
    <glyph glyph-name="y" unicode="y" horiz-adv-x="545" 
d="M525 549l-250 -638q-28 -71 -46 -103t-44 -45.5t-74 -13.5q-25 0 -50 6v69q21 -4 49 -4q23 0 37.5 9t26.5 30.5t30 66.5l30 77l-214 546h78l174 -449l177 449h76z" />
    <glyph glyph-name="z" unicode="z" horiz-adv-x="527" 
d="M470 69v-69h-403v69l298 412h-280v68h363v-68l-298 -412h320z" />
    <glyph glyph-name="braceleft" unicode="{" horiz-adv-x="338" 
d="M179.5 401q-14.5 -30 -54.5 -42q39 -13 54 -43.5t15 -96.5v-204q0 -43 13 -58t48 -15q26 0 46 4v-71q-23 -4 -46 -4q-50 0 -79.5 11.5t-43.5 39.5t-14 78v214q0 46 -5 69.5t-17.5 32t-37.5 8.5h-15v70h15q25 0 37.5 8.5t17.5 32t5 69.5v214q0 50 14 78t43.5 39.5
t79.5 11.5q23 0 46 -4v-71q-20 4 -46 4q-35 0 -48 -15t-13 -58v-204q0 -68 -14.5 -98z" />
    <glyph glyph-name="bar" unicode="|" horiz-adv-x="303" 
d="M113 847h76v-976h-76v976z" />
    <glyph glyph-name="braceright" unicode="}" horiz-adv-x="324" 
d="M23 0zM144.5 401q14.5 -30 54.5 -42q-39 -13 -54 -43.5t-15 -96.5v-204q0 -43 -13 -58t-48 -15q-26 0 -46 4v-71q23 -4 46 -4q50 0 79.5 11.5t43.5 39.5t14 78v214q0 46 5 69.5t17.5 32t37.5 8.5h15v70h-15q-25 0 -37.5 8.5t-17.5 32t-5 69.5v214q0 50 -14 78t-43.5 39.5
t-79.5 11.5q-23 0 -46 -4v-71q20 4 46 4q35 0 48 -15t13 -58v-204q0 -68 14.5 -98z" />
    <glyph glyph-name="asciitilde" unicode="~" horiz-adv-x="550" 
d="M312.5 284.5q-23.5 12.5 -51.5 35.5q-23 19 -38.5 28t-34.5 9q-30 0 -53.5 -16.5t-57.5 -49.5l-35 46q36 42 68.5 64.5t76.5 22.5q35 0 58.5 -12t52.5 -36q21 -17 36 -25.5t34 -8.5q31 0 53.5 13.5t52.5 40.5l34 -44q-34 -38 -66 -59t-73 -21q-33 0 -56.5 12.5z" />
    <glyph glyph-name="DEL" horiz-adv-x="600" 
 />
    <glyph glyph-name="uni00A0" unicode="&#xa0;" horiz-adv-x="220" 
 />
    <glyph glyph-name="exclamdown" unicode="&#xa1;" horiz-adv-x="284" 
d="M100 758h84v-154h-84v154zM110 528h64l14 -528h-92z" />
    <glyph glyph-name="cent" unicode="&#xa2;" horiz-adv-x="550" 
d="M364 -15v-81h-71v81q-111 11 -171 88t-60 201q0 122 60 198.5t171 87.5v81h71v-80q49 -4 108 -26v-75q-52 25 -108 30v-434q60 7 126 39l25 -65q-72 -37 -151 -45zM176 126.5q37 -58.5 117 -70.5v433q-80 -12 -117 -69t-37 -145q0 -90 37 -148.5z" />
    <glyph glyph-name="sterling" unicode="&#xa3;" horiz-adv-x="550" 
d="M505 71v-71h-460v71h95v245h-65v70h65v106q0 76 18 118t58.5 60t111.5 18q27 0 56.5 -4t49.5 -14v-74q-26 13 -51.5 17t-53.5 4q-46 0 -70.5 -11t-34.5 -38.5t-10 -79.5v-102h172v-70h-172v-245h291z" />
    <glyph glyph-name="currency" unicode="&#xa4;" horiz-adv-x="550" 
d="M43 143l81 83q-37 48 -37 110q0 60 35 108l-82 83l42 43l83 -83q50 34 107 34q62 0 113 -38l83 82l42 -43l-84 -84q32 -48 32 -102q0 -60 -35 -108l83 -82l-44 -43l-82 83q-49 -35 -108 -35q-58 0 -104 33l-83 -84zM333 226q28 17 44.5 46.5t16.5 63.5t-16.5 63.5
t-44.5 46.5t-61 17q-50 0 -85.5 -37t-35.5 -90t35.5 -90t85.5 -37q33 0 61 17z" />
    <glyph glyph-name="yen" unicode="&#xa5;" horiz-adv-x="550" 
d="M346 348h114v-66h-147v-89h147v-66h-147v-127h-76v127h-147v66h147v89h-147v66h114l-195 326h79l187 -318l188 318h79z" />
    <glyph glyph-name="brokenbar" unicode="&#xa6;" horiz-adv-x="303" 
d="M113 847h76v-376h-76v376zM113 247h76v-376h-76v376z" />
    <glyph glyph-name="section" unicode="&#xa7;" horiz-adv-x="550" 
d="M473.5 216.5q-29.5 -32.5 -83.5 -53.5q69 -42 69 -121q-1 -67 -52 -105t-140 -38q-48 0 -87.5 6.5t-77.5 22.5v73q73 -35 165 -35q60 0 88.5 21t28.5 56t-26.5 55t-73.5 33l-61 17q-57 16 -94.5 34t-60 49t-22.5 79q0 88 111 127q-28 19 -43 46t-15 67q0 69 47.5 103.5
t133.5 34.5q50 0 88 -8.5t78 -27.5v-71q-42 21 -80.5 30.5t-85.5 9.5q-52 0 -79 -19t-27 -53q0 -35 23 -52t67 -29l61 -17q81 -22 129.5 -56.5t49.5 -96.5q-1 -49 -30.5 -81.5zM400 233q29 25 29 61q0 33 -33.5 53t-94.5 37l-59 17q-8 2 -14 4q-107 -24 -107 -92
q0 -27 12 -43.5t38 -28t76 -26.5l59 -16l11 -4q54 13 83 38z" />
    <glyph glyph-name="dieresis" unicode="&#xa8;" horiz-adv-x="649" 
d="M389 791h71v-117h-71v117zM190 791h70v-117h-70v117z" />
    <glyph glyph-name="copyright" unicode="&#xa9;" horiz-adv-x="935" 
d="M266 34.5q-92 51.5 -145.5 141.5t-53.5 202q0 106 54 196.5t146 144t201 53.5q107 0 199 -53.5t146.5 -144t54.5 -196.5q0 -111 -54 -201.5t-146 -142t-200 -51.5q-110 0 -202 51.5zM632 89q76 44 121.5 120.5t45.5 170.5q0 88 -46 164t-122.5 121t-162.5 45
q-90 0 -166 -45t-121 -121.5t-45 -165.5q0 -94 44.5 -170t120.5 -119.5t167 -43.5q88 0 164 44zM357.5 184.5q-46.5 29.5 -70 80.5t-23.5 113q0 97 52.5 159.5t154.5 62.5q31 0 54.5 -4.5t49.5 -15.5v-68q-45 24 -104 24q-62 0 -99 -43.5t-37 -111.5q0 -76 35.5 -118.5
t100.5 -42.5q30 0 58 7t60 21l20 -58q-33 -17 -69 -26t-69 -9q-67 0 -113.5 29.5z" />
    <glyph glyph-name="ordfeminine" unicode="&#xaa;" horiz-adv-x="397" 
d="M285 657.5q32 -21.5 43 -58t11 -91.5v-224h-64v36q-49 -45 -110 -45q-55 0 -94.5 36t-39.5 97q0 64 42 100t110 36q45 0 92 -21q-2 50 -20 73t-73 23h-53v60h64q60 0 92 -21.5zM275 378v88q-38 17 -86 17q-38 0 -64.5 -17t-26.5 -57q0 -37 23 -55.5t50 -18.5q52 0 104 43
z" />
    <glyph glyph-name="guillemotleft" unicode="&#xab;" horiz-adv-x="741" 
d="M366 34zM436 270l186 -188l-50 -48l-206 208v56l206 208l50 -48zM185 270l186 -188l-50 -48l-206 208v56l206 208l50 -48z" />
    <glyph glyph-name="logicalnot" unicode="&#xac;" horiz-adv-x="550" 
d="M483 372v-243l-73 -1v174h-343v70h416z" />
    <glyph glyph-name="registered" unicode="&#xae;" horiz-adv-x="721" 
d="M505.5 730q66.5 -39 105.5 -105t39 -142q0 -81 -39 -146.5t-105.5 -103t-144.5 -37.5q-80 0 -146.5 37t-105 103t-38.5 147q0 76 39 142t105.5 105t145.5 39q78 0 144.5 -39zM477.5 280.5q53.5 30.5 85 84.5t31.5 120q0 61 -32 114t-86 84.5t-115 31.5q-63 0 -117 -31.5
t-85.5 -85t-31.5 -115.5q0 -66 31.5 -119.5t85 -83.5t117.5 -30q63 0 116.5 30.5zM419 447l69 -109h-61l-63 103h-51v-103h-53v290h110q53 0 78.5 -22t25.5 -71q0 -69 -55 -88zM313 489h55q29 0 40 10t11 36q0 25 -11 35t-40 10h-55v-91z" />
    <glyph glyph-name="macron" unicode="&#xaf;" horiz-adv-x="649" 
d="M170 762h309v-58h-309v58z" />
    <glyph glyph-name="degree" unicode="&#xb0;" horiz-adv-x="473" 
d="M140 332q-44 26 -70 70t-26 97t26 97t70 69.5t97 25.5t97 -25.5t69.5 -69.5t25.5 -97t-25.5 -97t-69.5 -70t-97 -26t-97 26zM324 408q34 37 34 91t-34 90.5t-87 36.5t-87.5 -37t-34.5 -90t34.5 -90.5t87.5 -37.5t87 37z" />
    <glyph glyph-name="plusminus" unicode="&#xb1;" horiz-adv-x="550" 
d="M67 0zM483 302h-172v-173l-72 -1v174h-172v70h172v172l72 1v-173h172v-70zM67 62h416v-70h-416v70z" />
    <glyph glyph-name="uni00B2" unicode="&#xb2;" horiz-adv-x="390" 
d="M44 193q88 98 136 156.5t72 104t24 84.5q0 41 -23 63t-67 22q-65 0 -125 -30v63q61 27 125 27q72 0 114 -37t42 -106q0 -47 -27 -98.5t-66.5 -100.5t-109.5 -127l-19 -21h236v-62h-312v62z" />
    <glyph glyph-name="uni00B3" unicode="&#xb3;" horiz-adv-x="390" 
d="M320.5 365q24.5 -35 24.5 -80q0 -79 -47 -122t-128 -43q-63 0 -116 20v63q54 -23 114 -23q49 0 79.5 27.5t30.5 79.5q0 48 -33.5 73.5t-95.5 25.5h-38v62h38q60 0 91 24t31 70q0 38 -26 59.5t-75 21.5q-58 0 -109 -20v62q51 18 109 18q83 0 125.5 -37.5t42.5 -103.5
q0 -87 -89 -125q47 -17 71.5 -52z" />
    <glyph glyph-name="acute" unicode="&#xb4;" horiz-adv-x="649" 
d="M380 809h90l-121 -153h-75z" />
    <glyph glyph-name="paragraph" unicode="&#xb6;" horiz-adv-x="668" 
d="M309 317h-29q-116 0 -174 56t-58 164q0 221 232 221h275v-858h-73v789h-101v-789h-72v417z" />
    <glyph glyph-name="periodcentered" unicode="&#xb7;" horiz-adv-x="284" 
d="M100 418h84v-156h-84v156z" />
    <glyph glyph-name="cedilla" unicode="&#xb8;" horiz-adv-x="649" 
d="M426.5 -93q28.5 -26 28.5 -69q0 -46 -32.5 -73.5t-93.5 -27.5q-52 0 -95 20v56q46 -21 92 -21q33 0 49.5 13t16.5 32q0 42 -56 42q-37 0 -83 -16l41 138h61l-21 -69l12 1q52 0 80.5 -26z" />
    <glyph glyph-name="uni00B9" unicode="&#xb9;" horiz-adv-x="390" 
d="M310 193v-62h-230v62h83v418h-69v62h133v-480h83z" />
    <glyph glyph-name="ordmasculine" unicode="&#xba;" horiz-adv-x="517" 
d="M153.5 302.5q-44.5 27.5 -68 75.5t-23.5 107q0 58 23.5 105.5t68 75t105.5 27.5t105.5 -27.5t67.5 -75t23 -105.5q0 -59 -23 -107t-67.5 -75.5t-105.5 -27.5t-105.5 27.5zM355.5 380q31.5 41 31.5 105q0 63 -31.5 103.5t-96.5 40.5t-97 -40.5t-32 -103.5q0 -64 32 -105
t97 -41t96.5 41z" />
    <glyph glyph-name="guillemotright" unicode="&#xbb;" horiz-adv-x="741" 
d="M119 34zM305 270l-186 -188l50 -48l206 208v56l-206 208l-50 -48zM556 270l-186 -188l50 -48l206 208v56l-206 208l-50 -48z" />
    <glyph glyph-name="onequarter" unicode="&#xbc;" horiz-adv-x="995" 
d="M80 0zM310 193v-62h-230v62h83v418h-69v62h133v-480h83zM708 773h72l-417 -806h-72zM985 155h-72v-133h-64v133h-226v60l229 358h61v-358h72v-60zM849 215v251l-162 -251h162z" />
    <glyph glyph-name="onehalf" unicode="&#xbd;" horiz-adv-x="1052" 
d="M80 0zM310 193v-62h-230v62h83v418h-69v62h133v-480h83zM708 773h72l-417 -806h-72zM706 84q88 98 136 156.5t72 104t24 84.5q0 41 -23 63t-67 22q-65 0 -125 -30v63q61 27 125 27q72 0 114 -37t42 -106q0 -47 -27 -98.5t-66.5 -100.5t-109.5 -127l-19 -21h236v-62h-312
v62z" />
    <glyph glyph-name="threequarters" unicode="&#xbe;" horiz-adv-x="991" 
d="M54 0zM320.5 365q24.5 -35 24.5 -80q0 -79 -47 -122t-128 -43q-63 0 -116 20v63q54 -23 114 -23q49 0 79.5 27.5t30.5 79.5q0 48 -33.5 73.5t-95.5 25.5h-38v62h38q60 0 91 24t31 70q0 38 -26 59.5t-75 21.5q-58 0 -109 -20v62q51 18 109 18q83 0 125.5 -37.5
t42.5 -103.5q0 -87 -89 -125q47 -17 71.5 -52zM703 773h72l-417 -806h-72zM981 155h-72v-133h-64v133h-226v60l229 358h61v-358h72v-60zM845 215v251l-162 -251h162z" />
    <glyph glyph-name="questiondown" unicode="&#xbf;" horiz-adv-x="542" 
d="M307 632h-22v98h22v-98zM135.5 36.5q-58.5 50.5 -58.5 143.5q0 54 20 89.5t59 69.5l28 24q30 27 44.5 42.5t22 35t7.5 48.5v39h76v-42q0 -42 -11 -70.5t-29 -48.5t-52 -50l-31 -26q-31 -28 -43.5 -51.5t-12.5 -56.5q0 -61 36 -94.5t98 -33.5q92 0 174 41v-73
q-83 -37 -177 -37q-92 0 -150.5 50.5z" />
    <glyph glyph-name="Agrave" unicode="&#xc0;" horiz-adv-x="711" 
d="M26 0zM515 237h-320l-89 -237h-80l290 767h78l291 -767h-80zM488 308l-133 353l-133 -353h266zM211 989h89l107 -153h-75z" />
    <glyph glyph-name="Aacute" unicode="&#xc1;" horiz-adv-x="711" 
d="M26 0zM515 237h-320l-89 -237h-80l290 767h78l291 -767h-80zM488 308l-133 353l-133 -353h266zM420 989h90l-121 -153h-75z" />
    <glyph glyph-name="Acircumflex" unicode="&#xc2;" horiz-adv-x="711" 
d="M26 0zM515 237h-320l-89 -237h-80l290 767h78l291 -767h-80zM488 308l-133 353l-133 -353h266zM428 836l-73 111l-74 -111h-85l116 153h85l116 -153h-85z" />
    <glyph glyph-name="Atilde" unicode="&#xc3;" horiz-adv-x="711" 
d="M26 0zM515 237h-320l-89 -237h-80l290 767h78l291 -767h-80zM488 308l-133 353l-133 -353h266zM229 937q22 24 55 24q29 0 59 -15l37 -19q20 -10 32 -10q30 0 30 44h61q-1 -55 -23 -79t-55 -24q-28 0 -58 15l-37 19q-22 10 -33 10q-30 0 -30 -44h-61q1 55 23 79z" />
    <glyph glyph-name="Adieresis" unicode="&#xc4;" horiz-adv-x="711" 
d="M26 0zM515 237h-320l-89 -237h-80l290 767h78l291 -767h-80zM488 308l-133 353l-133 -353h266zM419 971h71v-117h-71v117zM220 971h70v-117h-70v117z" />
    <glyph glyph-name="Aring" unicode="&#xc5;" horiz-adv-x="711" 
d="M26 0zM515 237h-320l-89 -237h-80l290 767h78l291 -767h-80zM488 308l-133 353l-133 -353h266zM284.5 846.5q-27.5 26.5 -27.5 65.5q0 40 27 65.5t71 25.5q43 0 70 -26t27 -65q0 -40 -27 -66t-70 -26t-70.5 26.5zM389.5 876.5q13.5 13.5 13.5 35.5t-13 35.5t-35 13.5
q-21 0 -35 -13.5t-14 -35.5t14 -35.5t35 -13.5t34.5 13.5z" />
    <glyph glyph-name="AE" unicode="&#xc6;" horiz-adv-x="1070" 
d="M1010 69v-69h-454v246h-282l-156 -246h-85l486 758h486v-69h-372v-273h322v-69h-322v-278h377zM556 315v375l-238 -375h238z" />
    <glyph glyph-name="Ccedilla" unicode="&#xc7;" horiz-adv-x="705" 
d="M524.5 -93q28.5 -26 28.5 -69q0 -46 -32.5 -73.5t-92.5 -27.5q-53 0 -96 20v56q46 -21 92 -21q34 0 50 13t16 32q0 42 -56 42q-35 0 -83 -16l37 121q-159 12 -242.5 118t-83.5 276q0 112 40 201t121.5 141t202.5 52q53 0 94.5 -8.5t89.5 -28.5v-73q-83 41 -183 41
q-89 0 -154 -41.5t-99 -115.5t-34 -168q1 -97 34.5 -170.5t97.5 -114.5t154 -41q55 0 107.5 15t110.5 43l26 -66q-53 -27 -110.5 -42.5t-110.5 -17.5l-16 -52q3 1 11 1q52 0 80.5 -26z" />
    <glyph glyph-name="Egrave" unicode="&#xc8;" horiz-adv-x="628" 
d="M113 0zM568 69v-69h-455v758h450v-69h-373v-273h323v-69h-323v-278h378zM192 989h89l107 -153h-75z" />
    <glyph glyph-name="Eacute" unicode="&#xc9;" horiz-adv-x="628" 
d="M113 0zM568 69v-69h-455v758h450v-69h-373v-273h323v-69h-323v-278h378zM402 989h90l-121 -153h-75z" />
    <glyph glyph-name="Ecircumflex" unicode="&#xca;" horiz-adv-x="628" 
d="M113 0zM568 69v-69h-455v758h450v-69h-373v-273h323v-69h-323v-278h378zM409 836l-73 111l-74 -111h-85l116 153h85l116 -153h-85z" />
    <glyph glyph-name="Edieresis" unicode="&#xcb;" horiz-adv-x="628" 
d="M113 0zM568 69v-69h-455v758h450v-69h-373v-273h323v-69h-323v-278h378zM401 971h71v-117h-71v117zM202 971h70v-117h-70v117z" />
    <glyph glyph-name="Igrave" unicode="&#xcc;" horiz-adv-x="303" 
d="M7 0zM113 758h77v-758h-77v758zM7 989h89l107 -153h-75z" />
    <glyph glyph-name="Iacute" unicode="&#xcd;" horiz-adv-x="303" 
d="M111 0zM113 758h77v-758h-77v758zM217 989h90l-121 -153h-75z" />
    <glyph glyph-name="Icircumflex" unicode="&#xce;" horiz-adv-x="303" 
d="M0 0zM113 758h77v-758h-77v758zM225 836l-73 111l-74 -111h-85l116 153h85l116 -153h-85z" />
    <glyph glyph-name="Idieresis" unicode="&#xcf;" horiz-adv-x="303" 
d="M17 0zM113 758h77v-758h-77v758zM216 971h71v-117h-71v117zM17 971h70v-117h-70v117z" />
    <glyph glyph-name="Eth" unicode="&#xd0;" horiz-adv-x="795" 
d="M636.5 661.5q92.5 -96.5 92.5 -283.5q0 -188 -92 -283t-275 -95h-249v349h-89v64h89v345h249q182 0 274.5 -96.5zM578.5 144q72.5 75 72.5 237q0 158 -73.5 233t-215.5 75h-172v-276h196v-64h-196v-280h172q144 0 216.5 75z" />
    <glyph glyph-name="Ntilde" unicode="&#xd1;" horiz-adv-x="782" 
d="M113 0zM669 758v-758h-80l-399 625v-625h-77v758h81l398 -625v625h77zM278 937q22 24 55 24q29 0 59 -15l37 -19q20 -10 32 -10q30 0 30 44h61q-1 -55 -23 -79t-55 -24q-28 0 -58 15l-37 19q-22 10 -33 10q-30 0 -30 -44h-61q1 55 23 79z" />
    <glyph glyph-name="Ograve" unicode="&#xd2;" horiz-adv-x="832" 
d="M62 0zM222 34.5q-80 51.5 -120 141t-40 202.5q0 111 40 200t120 141.5t195 52.5q113 0 193 -52.5t120.5 -142t40.5 -199.5q0 -113 -40.5 -202.5t-120.5 -141t-193 -51.5q-115 0 -195 51.5zM565 95q62 43 94.5 118t32.5 168q0 90 -32.5 163t-95 116t-147.5 43
q-88 0 -150.5 -43t-94 -117t-31.5 -165q0 -93 31.5 -167t94 -116.5t150.5 -42.5q86 0 148 43zM272 989h89l107 -153h-75z" />
    <glyph glyph-name="Oacute" unicode="&#xd3;" horiz-adv-x="832" 
d="M62 0zM222 34.5q-80 51.5 -120 141t-40 202.5q0 111 40 200t120 141.5t195 52.5q113 0 193 -52.5t120.5 -142t40.5 -199.5q0 -113 -40.5 -202.5t-120.5 -141t-193 -51.5q-115 0 -195 51.5zM565 95q62 43 94.5 118t32.5 168q0 90 -32.5 163t-95 116t-147.5 43
q-88 0 -150.5 -43t-94 -117t-31.5 -165q0 -93 31.5 -167t94 -116.5t150.5 -42.5q86 0 148 43zM482 989h90l-121 -153h-75z" />
    <glyph glyph-name="Ocircumflex" unicode="&#xd4;" horiz-adv-x="832" 
d="M62 0zM222 34.5q-80 51.5 -120 141t-40 202.5q0 111 40 200t120 141.5t195 52.5q113 0 193 -52.5t120.5 -142t40.5 -199.5q0 -113 -40.5 -202.5t-120.5 -141t-193 -51.5q-115 0 -195 51.5zM565 95q62 43 94.5 118t32.5 168q0 90 -32.5 163t-95 116t-147.5 43
q-88 0 -150.5 -43t-94 -117t-31.5 -165q0 -93 31.5 -167t94 -116.5t150.5 -42.5q86 0 148 43zM490 836l-73 111l-74 -111h-85l116 153h85l116 -153h-85z" />
    <glyph glyph-name="Otilde" unicode="&#xd5;" horiz-adv-x="832" 
d="M62 0zM222 34.5q-80 51.5 -120 141t-40 202.5q0 111 40 200t120 141.5t195 52.5q113 0 193 -52.5t120.5 -142t40.5 -199.5q0 -113 -40.5 -202.5t-120.5 -141t-193 -51.5q-115 0 -195 51.5zM565 95q62 43 94.5 118t32.5 168q0 90 -32.5 163t-95 116t-147.5 43
q-88 0 -150.5 -43t-94 -117t-31.5 -165q0 -93 31.5 -167t94 -116.5t150.5 -42.5q86 0 148 43zM291 937q22 24 55 24q29 0 59 -15l37 -19q20 -10 32 -10q30 0 30 44h61q-1 -55 -23 -79t-55 -24q-28 0 -58 15l-37 19q-22 10 -33 10q-30 0 -30 -44h-61q1 55 23 79z" />
    <glyph glyph-name="Odieresis" unicode="&#xd6;" horiz-adv-x="832" 
d="M62 0zM222 34.5q-80 51.5 -120 141t-40 202.5q0 111 40 200t120 141.5t195 52.5q113 0 193 -52.5t120.5 -142t40.5 -199.5q0 -113 -40.5 -202.5t-120.5 -141t-193 -51.5q-115 0 -195 51.5zM565 95q62 43 94.5 118t32.5 168q0 90 -32.5 163t-95 116t-147.5 43
q-88 0 -150.5 -43t-94 -117t-31.5 -165q0 -93 31.5 -167t94 -116.5t150.5 -42.5q86 0 148 43zM481 971h71v-117h-71v117zM282 971h70v-117h-70v117z" />
    <glyph glyph-name="Oslash" unicode="&#xd8;" horiz-adv-x="832" 
d="M707 620q64 -102 64 -242q0 -113 -40.5 -202.5t-120.5 -141t-193 -51.5q-159 0 -254 100l-86 -85l-47 45l93 92q-61 100 -61 243q0 111 40 200t120 141.5t195 52.5q79 0 142 -26t108 -74l90 88l46 -46zM181 192l431 426q-35 41 -84.5 63t-110.5 22q-88 0 -150.5 -43
t-94 -117t-31.5 -165q0 -107 40 -186zM650 563l-432 -426q74 -85 199 -85q86 0 148 42.5t94 116.5t33 167q0 107 -42 185z" />
    <glyph glyph-name="Ugrave" unicode="&#xd9;" horiz-adv-x="775" 
d="M109 0zM178.5 54q-69.5 71 -69.5 202v502h77v-502q0 -101 50.5 -152.5t151.5 -51.5q100 0 150.5 51.5t50.5 152.5v502h77v-502q0 -131 -69 -202t-209 -71t-209.5 71zM243 989h89l107 -153h-75z" />
    <glyph glyph-name="Uacute" unicode="&#xda;" horiz-adv-x="775" 
d="M109 0zM178.5 54q-69.5 71 -69.5 202v502h77v-502q0 -101 50.5 -152.5t151.5 -51.5q100 0 150.5 51.5t50.5 152.5v502h77v-502q0 -131 -69 -202t-209 -71t-209.5 71zM453 989h90l-121 -153h-75z" />
    <glyph glyph-name="Ucircumflex" unicode="&#xdb;" horiz-adv-x="775" 
d="M109 0zM178.5 54q-69.5 71 -69.5 202v502h77v-502q0 -101 50.5 -152.5t151.5 -51.5q100 0 150.5 51.5t50.5 152.5v502h77v-502q0 -131 -69 -202t-209 -71t-209.5 71zM460 836l-73 111l-74 -111h-85l116 153h85l116 -153h-85z" />
    <glyph glyph-name="Udieresis" unicode="&#xdc;" horiz-adv-x="775" 
d="M109 0zM452 971h71v-117h-71v117zM253 971h70v-117h-70v117zM178.5 54q-69.5 71 -69.5 202v502h77v-502q0 -101 50.5 -152.5t151.5 -51.5q100 0 150.5 51.5t50.5 152.5v502h77v-502q0 -131 -69 -202t-209 -71t-209.5 71z" />
    <glyph glyph-name="Yacute" unicode="&#xdd;" horiz-adv-x="708" 
d="M33 0zM392 293v-293h-76v293l-283 465h80l241 -400l242 400h80zM419 989h90l-121 -153h-75z" />
    <glyph glyph-name="Thorn" unicode="&#xde;" horiz-adv-x="642" 
d="M606 383q0 -106 -59.5 -161.5t-177.5 -55.5h-179v-166h-77v758h77v-155h179q237 0 237 -220zM487.5 498.5q-39.5 35.5 -118.5 35.5h-179v-300h179q158 0 158 152q0 77 -39.5 112.5z" />
    <glyph glyph-name="germandbls" unicode="&#xdf;" horiz-adv-x="609" 
d="M318.5 -11.5q-28.5 5.5 -59.5 19.5v72q37 -16 62.5 -22t52.5 -6q115 0 116 95q0 40 -25.5 61.5t-76.5 44.5q-42 20 -67.5 36.5t-43.5 46t-18 74.5q0 40 13.5 69t39.5 65q28 40 41.5 70t13.5 74q0 52 -24 76t-73 24q-54 0 -77.5 -24t-23.5 -83v-681h-74v681q0 96 44 137
t136 41q78 0 122 -43.5t44 -125.5q0 -61 -17 -100t-48 -86q-22 -31 -31.5 -51t-9.5 -43q0 -32 22.5 -51.5t71.5 -43.5q44 -22 71 -40.5t46.5 -50t19.5 -77.5q-3 -82 -52.5 -123t-134.5 -41q-32 0 -60.5 5.5z" />
    <glyph glyph-name="agrave" unicode="&#xe0;" horiz-adv-x="514" 
d="M34 0zM377.5 519.5q42.5 -29.5 57 -79t14.5 -124.5v-316h-74v57q-40 -37 -78.5 -53.5t-82.5 -16.5q-49 0 -90 22.5t-65.5 64.5t-24.5 100q0 90 56 139.5t150 49.5q34 0 69.5 -8.5t65.5 -24.5q-1 54 -11 86t-39 49.5t-87 17.5h-64v66h79q82 0 124.5 -29.5zM375 123v144
q-57 30 -128 30q-58 0 -97.5 -28.5t-39.5 -94.5q0 -63 33.5 -91.5t76.5 -28.5q79 0 155 69zM116 809h90l106 -153h-75z" />
    <glyph glyph-name="aacute" unicode="&#xe1;" horiz-adv-x="514" 
d="M34 0zM377.5 519.5q42.5 -29.5 57 -79t14.5 -124.5v-316h-74v57q-40 -37 -78.5 -53.5t-82.5 -16.5q-49 0 -90 22.5t-65.5 64.5t-24.5 100q0 90 56 139.5t150 49.5q34 0 69.5 -8.5t65.5 -24.5q-1 54 -11 86t-39 49.5t-87 17.5h-64v66h79q82 0 124.5 -29.5zM375 123v144
q-57 30 -128 30q-58 0 -97.5 -28.5t-39.5 -94.5q0 -63 33.5 -91.5t76.5 -28.5q79 0 155 69zM334 809h90l-121 -153h-75z" />
    <glyph glyph-name="acircumflex" unicode="&#xe2;" horiz-adv-x="514" 
d="M34 0zM377.5 519.5q42.5 -29.5 57 -79t14.5 -124.5v-316h-74v57q-40 -37 -78.5 -53.5t-82.5 -16.5q-49 0 -90 22.5t-65.5 64.5t-24.5 100q0 90 56 139.5t150 49.5q34 0 69.5 -8.5t65.5 -24.5q-1 54 -11 86t-39 49.5t-87 17.5h-64v66h79q82 0 124.5 -29.5zM375 123v144
q-57 30 -128 30q-58 0 -97.5 -28.5t-39.5 -94.5q0 -63 33.5 -91.5t76.5 -28.5q79 0 155 69zM342 656l-73 111l-74 -111h-85l116 153h85l116 -153h-85z" />
    <glyph glyph-name="atilde" unicode="&#xe3;" horiz-adv-x="514" 
d="M34 0zM377.5 519.5q42.5 -29.5 57 -79t14.5 -124.5v-316h-74v57q-40 -37 -78.5 -53.5t-82.5 -16.5q-49 0 -90 22.5t-65.5 64.5t-24.5 100q0 90 56 139.5t150 49.5q34 0 69.5 -8.5t65.5 -24.5q-1 54 -11 86t-39 49.5t-87 17.5h-64v66h79q82 0 124.5 -29.5zM375 123v144
q-57 30 -128 30q-58 0 -97.5 -28.5t-39.5 -94.5q0 -63 33.5 -91.5t76.5 -28.5q79 0 155 69zM143 757q22 24 55 24q29 0 59 -15l37 -19q20 -10 32 -10q30 0 30 44h61q-1 -55 -23 -79t-55 -24q-28 0 -58 15l-37 19q-22 10 -33 10q-30 0 -30 -44h-61q1 55 23 79z" />
    <glyph glyph-name="adieresis" unicode="&#xe4;" horiz-adv-x="514" 
d="M34 0zM377.5 519.5q42.5 -29.5 57 -79t14.5 -124.5v-316h-74v57q-40 -37 -78.5 -53.5t-82.5 -16.5q-49 0 -90 22.5t-65.5 64.5t-24.5 100q0 90 56 139.5t150 49.5q34 0 69.5 -8.5t65.5 -24.5q-1 54 -11 86t-39 49.5t-87 17.5h-64v66h79q82 0 124.5 -29.5zM375 123v144
q-57 30 -128 30q-58 0 -97.5 -28.5t-39.5 -94.5q0 -63 33.5 -91.5t76.5 -28.5q79 0 155 69zM333 791h71v-117h-71v117zM134 791h70v-117h-70v117z" />
    <glyph glyph-name="aring" unicode="&#xe5;" horiz-adv-x="514" 
d="M34 0zM377.5 519.5q42.5 -29.5 57 -79t14.5 -124.5v-316h-74v57q-40 -37 -78.5 -53.5t-82.5 -16.5q-49 0 -90 22.5t-65.5 64.5t-24.5 100q0 90 56 139.5t150 49.5q34 0 69.5 -8.5t65.5 -24.5q-1 54 -11 86t-39 49.5t-87 17.5h-64v66h79q82 0 124.5 -29.5zM375 123v144
q-57 30 -128 30q-58 0 -97.5 -28.5t-39.5 -94.5q0 -63 33.5 -91.5t76.5 -28.5q79 0 155 69zM198.5 666.5q-27.5 26.5 -27.5 65.5q0 40 27 65.5t71 25.5q43 0 70 -26t27 -65q0 -40 -27 -66t-70 -26t-70.5 26.5zM303.5 696.5q13.5 13.5 13.5 35.5t-13 35.5t-35 13.5
q-21 0 -35 -13.5t-14 -35.5t14 -35.5t35 -13.5t34.5 13.5z" />
    <glyph glyph-name="ae" unicode="&#xe6;" horiz-adv-x="891" 
d="M452 277q0 -100 46 -162t147 -63q73 0 162 41l24 -64q-88 -46 -190 -46q-72 0 -126.5 26.5t-88.5 75.5q-52 -50 -103.5 -74t-108.5 -24q-49 0 -90 22.5t-65.5 64.5t-24.5 100q0 90 56 139.5t150 49.5q34 0 69.5 -8.5t65.5 -24.5q-1 54 -11 86t-39 49.5t-87 17.5h-64v66
h79q72 0 112.5 -24t58.5 -70q32 54 83.5 82t114.5 28q103 0 162.5 -66.5t60.5 -190.5v-29h-393v-2zM511.5 458.5q-42.5 -37.5 -54.5 -112.5h310q-6 77 -42 113.5t-106 36.5q-65 0 -107.5 -37.5zM307.5 76.5q45.5 22.5 88.5 67.5q-21 58 -21 123q-57 30 -128 30
q-58 0 -97.5 -28.5t-39.5 -94.5q0 -63 33.5 -91.5t76.5 -28.5q42 0 87.5 22.5z" />
    <glyph glyph-name="ccedilla" unicode="&#xe7;" horiz-adv-x="546" 
d="M411.5 -93q28.5 -26 28.5 -69q0 -46 -32.5 -73.5t-93.5 -27.5q-52 0 -95 20v56q46 -21 92 -21q34 0 50 13t16 32q0 42 -56 42q-37 0 -83 -16l37 124q-103 15 -158 92t-55 197q0 133 68 211t195 78q43 0 75 -6t68 -21v-74q-37 17 -69.5 24t-70.5 7q-99 -1 -144 -60
t-45 -158q0 -101 44.5 -161.5t143.5 -61.5q74 0 159 41l25 -65q-82 -44 -177 -47l-15 -51q4 1 12 1q52 0 80.5 -26z" />
    <glyph glyph-name="egrave" unicode="&#xe8;" horiz-adv-x="578" 
d="M62 0zM139 277q0 -101 46 -163t147 -62q73 0 162 41l24 -64q-88 -46 -190 -46q-127 0 -196.5 80t-69.5 213q0 92 32 157t87.5 98.5t124.5 33.5q105 0 165 -66t61 -191v-29h-393v-2zM198.5 458.5q-42.5 -37.5 -54.5 -112.5h310q-6 77 -42 113.5t-106 36.5
q-65 0 -107.5 -37.5zM152 809h90l106 -153h-75z" />
    <glyph glyph-name="eacute" unicode="&#xe9;" horiz-adv-x="578" 
d="M62 0zM139 277q0 -101 46 -163t147 -62q73 0 162 41l24 -64q-88 -46 -190 -46q-127 0 -196.5 80t-69.5 213q0 92 32 157t87.5 98.5t124.5 33.5q105 0 165 -66t61 -191v-29h-393v-2zM198.5 458.5q-42.5 -37.5 -54.5 -112.5h310q-6 77 -42 113.5t-106 36.5
q-65 0 -107.5 -37.5zM371 809h90l-121 -153h-75z" />
    <glyph glyph-name="ecircumflex" unicode="&#xea;" horiz-adv-x="578" 
d="M62 0zM139 277q0 -101 46 -163t147 -62q73 0 162 41l24 -64q-88 -46 -190 -46q-127 0 -196.5 80t-69.5 213q0 92 32 157t87.5 98.5t124.5 33.5q105 0 165 -66t61 -191v-29h-393v-2zM198.5 458.5q-42.5 -37.5 -54.5 -112.5h310q-6 77 -42 113.5t-106 36.5
q-65 0 -107.5 -37.5zM379 656l-73 111l-74 -111h-85l116 153h85l116 -153h-85z" />
    <glyph glyph-name="edieresis" unicode="&#xeb;" horiz-adv-x="578" 
d="M62 0zM139 277q0 -101 46 -163t147 -62q73 0 162 41l24 -64q-88 -46 -190 -46q-127 0 -196.5 80t-69.5 213q0 92 32 157t87.5 98.5t124.5 33.5q105 0 165 -66t61 -191v-29h-393v-2zM198.5 458.5q-42.5 -37.5 -54.5 -112.5h310q-6 77 -42 113.5t-106 36.5
q-65 0 -107.5 -37.5zM370 791h71v-117h-71v117zM171 791h70v-117h-70v117z" />
    <glyph glyph-name="igrave" unicode="&#xec;" horiz-adv-x="264" 
d="M0 0zM95 549h74v-549h-74v549zM-22 809h90l106 -153h-75z" />
    <glyph glyph-name="iacute" unicode="&#xed;" horiz-adv-x="264" 
d="M90 0zM95 549h74v-549h-74v549zM196 809h90l-121 -153h-75z" />
    <glyph glyph-name="icircumflex" unicode="&#xee;" horiz-adv-x="264" 
d="M0 0zM95 549h74v-549h-74v549zM204 656l-73 111l-74 -111h-85l116 153h85l116 -153h-85z" />
    <glyph glyph-name="idieresis" unicode="&#xef;" horiz-adv-x="264" 
d="M0 0zM95 549h74v-549h-74v549zM195 791h71v-117h-71v117zM-4 791h70v-117h-70v117z" />
    <glyph glyph-name="eth" unicode="&#xf0;" horiz-adv-x="626" 
d="M517 566.5q48 -121.5 48 -251.5q0 -151 -65 -241.5t-186 -90.5q-117 0 -184.5 74t-67.5 216q0 150 68 220.5t175 70.5q39 0 79 -18t77 -49q-41 135 -133 230l-86 -77l-40 36l86 77q-27 23 -68 47l49 52q35 -20 73 -50l70 62l41 -37l-70 -62q86 -87 134 -208.5zM481 412
q-85 81 -168 81q-76 0 -125.5 -48.5t-49.5 -171.5q0 -219 176 -219q82 0 128 66.5t47 192.5q0 46 -8 99z" />
    <glyph glyph-name="ntilde" unicode="&#xf1;" horiz-adv-x="625" 
d="M95 0zM487.5 508.5q47.5 -52.5 47.5 -176.5v-332h-74v332q0 87 -28 123t-99 36q-84 0 -165 -73v-418h-74v549h74v-62q39 35 83 54.5t88 19.5q100 0 147.5 -52.5zM189 757q22 24 55 24q29 0 59 -15l37 -19q20 -10 32 -10q30 0 30 44h61q-1 -55 -23 -79t-55 -24
q-28 0 -58 15l-37 19q-22 10 -33 10q-30 0 -30 -44h-61q1 55 23 79z" />
    <glyph glyph-name="ograve" unicode="&#xf2;" horiz-adv-x="653" 
d="M62 0zM181.5 21.5q-59.5 38.5 -89.5 104.5t-30 149q0 82 30 148t89.5 104t145.5 38t145.5 -38t89.5 -104t30 -148q0 -83 -30 -149t-89.5 -104.5t-145.5 -38.5t-145.5 38.5zM465.5 115q49.5 62 49.5 160q0 97 -49.5 159t-138.5 62t-138.5 -62t-49.5 -159q0 -98 49.5 -160
t138.5 -62t138.5 62zM173 809h90l106 -153h-75z" />
    <glyph glyph-name="oacute" unicode="&#xf3;" horiz-adv-x="653" 
d="M62 0zM181.5 21.5q-59.5 38.5 -89.5 104.5t-30 149q0 82 30 148t89.5 104t145.5 38t145.5 -38t89.5 -104t30 -148q0 -83 -30 -149t-89.5 -104.5t-145.5 -38.5t-145.5 38.5zM465.5 115q49.5 62 49.5 160q0 97 -49.5 159t-138.5 62t-138.5 -62t-49.5 -159q0 -98 49.5 -160
t138.5 -62t138.5 62zM391 809h90l-121 -153h-75z" />
    <glyph glyph-name="ocircumflex" unicode="&#xf4;" horiz-adv-x="653" 
d="M62 0zM181.5 21.5q-59.5 38.5 -89.5 104.5t-30 149q0 82 30 148t89.5 104t145.5 38t145.5 -38t89.5 -104t30 -148q0 -83 -30 -149t-89.5 -104.5t-145.5 -38.5t-145.5 38.5zM465.5 115q49.5 62 49.5 160q0 97 -49.5 159t-138.5 62t-138.5 -62t-49.5 -159q0 -98 49.5 -160
t138.5 -62t138.5 62zM399 656l-73 111l-74 -111h-85l116 153h85l116 -153h-85z" />
    <glyph glyph-name="otilde" unicode="&#xf5;" horiz-adv-x="653" 
d="M62 0zM181.5 21.5q-59.5 38.5 -89.5 104.5t-30 149q0 82 30 148t89.5 104t145.5 38t145.5 -38t89.5 -104t30 -148q0 -83 -30 -149t-89.5 -104.5t-145.5 -38.5t-145.5 38.5zM465.5 115q49.5 62 49.5 160q0 97 -49.5 159t-138.5 62t-138.5 -62t-49.5 -159q0 -98 49.5 -160
t138.5 -62t138.5 62zM200 757q22 24 55 24q29 0 59 -15l37 -19q20 -10 32 -10q30 0 30 44h61q-1 -55 -23 -79t-55 -24q-28 0 -58 15l-37 19q-22 10 -33 10q-30 0 -30 -44h-61q1 55 23 79z" />
    <glyph glyph-name="odieresis" unicode="&#xf6;" horiz-adv-x="653" 
d="M62 0zM181.5 21.5q-59.5 38.5 -89.5 104.5t-30 149q0 82 30 148t89.5 104t145.5 38t145.5 -38t89.5 -104t30 -148q0 -83 -30 -149t-89.5 -104.5t-145.5 -38.5t-145.5 38.5zM465.5 115q49.5 62 49.5 160q0 97 -49.5 159t-138.5 62t-138.5 -62t-49.5 -159q0 -98 49.5 -160
t138.5 -62t138.5 62zM390 791h71v-117h-71v117zM191 791h70v-117h-70v117z" />
    <glyph glyph-name="divide" unicode="&#xf7;" horiz-adv-x="550" 
d="M67 39zM233 195h84v-156h-84v156zM67 372h416v-70h-416v70zM233 637h84v-156h-84v156z" />
    <glyph glyph-name="oslash" unicode="&#xf8;" horiz-adv-x="653" 
d="M552 441q40 -70 40 -166q0 -83 -30 -149t-89.5 -104.5t-145.5 -38.5q-118 0 -189 74l-64 -59l-45 43l72 67q-39 71 -39 167q0 82 30 148t89.5 104t145.5 38q120 0 188 -73l65 60l44 -44zM160 162l300 278q-51 56 -133 56q-89 0 -138.5 -62t-49.5 -159q0 -64 21 -113z
M494 386l-300 -278q50 -55 133 -55q89 0 138.5 62t49.5 160q0 63 -21 111z" />
    <glyph glyph-name="ugrave" unicode="&#xf9;" horiz-adv-x="625" 
d="M90 0zM530 549v-549h-74v63q-38 -35 -82 -55t-89 -20q-100 0 -147.5 53t-47.5 177v331h74v-331q0 -87 28 -123t100 -36q84 0 164 73v417h74zM155 809h90l106 -153h-75z" />
    <glyph glyph-name="uacute" unicode="&#xfa;" horiz-adv-x="625" 
d="M90 0zM530 549v-549h-74v63q-38 -35 -82 -55t-89 -20q-100 0 -147.5 53t-47.5 177v331h74v-331q0 -87 28 -123t100 -36q84 0 164 73v417h74zM373 809h90l-121 -153h-75z" />
    <glyph glyph-name="ucircumflex" unicode="&#xfb;" horiz-adv-x="625" 
d="M90 0zM530 549v-549h-74v63q-38 -35 -82 -55t-89 -20q-100 0 -147.5 53t-47.5 177v331h74v-331q0 -87 28 -123t100 -36q84 0 164 73v417h74zM381 656l-73 111l-74 -111h-85l116 153h85l116 -153h-85z" />
    <glyph glyph-name="udieresis" unicode="&#xfc;" horiz-adv-x="625" 
d="M90 0zM530 549v-549h-74v63q-38 -35 -82 -55t-89 -20q-100 0 -147.5 53t-47.5 177v331h74v-331q0 -87 28 -123t100 -36q84 0 164 73v417h74zM373 791h71v-117h-71v117zM174 791h70v-117h-70v117z" />
    <glyph glyph-name="yacute" unicode="&#xfd;" horiz-adv-x="545" 
d="M20 0zM525 549l-250 -638q-28 -71 -46 -103t-44 -45.5t-74 -13.5q-25 0 -50 6v69q21 -4 49 -4q23 0 37.5 9t26.5 30.5t30 66.5l30 77l-214 546h78l174 -449l177 449h76zM337 809h90l-121 -153h-75z" />
    <glyph glyph-name="thorn" unicode="&#xfe;" horiz-adv-x="623" 
d="M507 491q66 -74 66 -217q0 -142 -66 -216.5t-176 -74.5q-81 0 -162 71v-288h-74v1080h74v-351q80 70 162 70q110 0 176 -74zM453 110q43 56 43 164t-43.5 164.5t-127.5 56.5q-78 0 -156 -68v-306q77 -67 156 -67q85 0 128 56z" />
    <glyph glyph-name="ydieresis" unicode="&#xff;" horiz-adv-x="545" 
d="M20 0zM525 549l-250 -638q-28 -71 -46 -103t-44 -45.5t-74 -13.5q-25 0 -50 6v69q21 -4 49 -4q23 0 37.5 9t26.5 30.5t30 66.5l30 77l-214 546h78l174 -449l177 449h76zM336 791h71v-117h-71v117zM137 791h70v-117h-70v117z" />
    <glyph glyph-name="Amacron" unicode="&#x100;" horiz-adv-x="711" 
d="M26 0zM515 237h-320l-89 -237h-80l290 767h78l291 -767h-80zM488 308l-133 353l-133 -353h266zM200 942h309v-58h-309v58z" />
    <glyph glyph-name="amacron" unicode="&#x101;" horiz-adv-x="514" 
d="M34 0zM377.5 519.5q42.5 -29.5 57 -79t14.5 -124.5v-316h-74v57q-40 -37 -78.5 -53.5t-82.5 -16.5q-49 0 -90 22.5t-65.5 64.5t-24.5 100q0 90 56 139.5t150 49.5q34 0 69.5 -8.5t65.5 -24.5q-1 54 -11 86t-39 49.5t-87 17.5h-64v66h79q82 0 124.5 -29.5zM375 123v144
q-57 30 -128 30q-58 0 -97.5 -28.5t-39.5 -94.5q0 -63 33.5 -91.5t76.5 -28.5q79 0 155 69zM114 762h309v-58h-309v58z" />
    <glyph glyph-name="Abreve" unicode="&#x102;" horiz-adv-x="711" 
d="M26 0zM515 237h-320l-89 -237h-80l290 767h78l291 -767h-80zM488 308l-133 353l-133 -353h266zM243.5 872.5q-41.5 36.5 -41.5 105.5v9h63v-8q0 -44 21.5 -65t68.5 -21t68.5 21t21.5 65v8h63v-9q3 -69 -39 -105.5t-114 -36.5q-70 0 -111.5 36.5z" />
    <glyph glyph-name="abreve" unicode="&#x103;" horiz-adv-x="514" 
d="M34 0zM377.5 519.5q42.5 -29.5 57 -79t14.5 -124.5v-316h-74v57q-40 -37 -78.5 -53.5t-82.5 -16.5q-49 0 -90 22.5t-65.5 64.5t-24.5 100q0 90 56 139.5t150 49.5q34 0 69.5 -8.5t65.5 -24.5q-1 54 -11 86t-39 49.5t-87 17.5h-64v66h79q82 0 124.5 -29.5zM375 123v144
q-57 30 -128 30q-58 0 -97.5 -28.5t-39.5 -94.5q0 -63 33.5 -91.5t76.5 -28.5q79 0 155 69zM158.5 692.5q-41.5 36.5 -41.5 105.5v9h63v-8q0 -44 21.5 -65t68.5 -21t68.5 21t21.5 65v8h63v-9q3 -69 -39 -105.5t-114 -36.5q-70 0 -111.5 36.5z" />
    <glyph glyph-name="Aogonek" unicode="&#x104;" horiz-adv-x="711" 
d="M26 0zM515 237h-320l-89 -237h-80l290 767h78l291 -767h-80zM488 308l-133 353l-133 -353h266zM547.5 -206.5q-27.5 23.5 -27.5 63.5q0 38 23 72t70 71h72q-49 -40 -75 -70.5t-26 -63.5q0 -18 12.5 -29t36.5 -11q30 0 52 12v-56q-28 -12 -57 -12q-53 0 -80.5 23.5z" />
    <glyph glyph-name="aogonek" unicode="&#x105;" horiz-adv-x="514" 
d="M377.5 519.5q42.5 -29.5 57 -79t14.5 -124.5v-316q-49 -39 -74.5 -70t-25.5 -64q0 -18 12 -29t36 -11q29 0 52 12v-56q-30 -12 -57 -12q-53 0 -80 23.5t-27 63.5q0 38 24 72t72 71h-6v57q-40 -37 -78.5 -53.5t-82.5 -16.5q-49 0 -90 22.5t-65.5 64.5t-24.5 100
q0 90 56 139.5t150 49.5q34 0 69.5 -8.5t65.5 -24.5q-1 54 -11 86t-39 49.5t-87 17.5h-64v66h79q82 0 124.5 -29.5zM375 123v144q-57 30 -128 30q-58 0 -97.5 -28.5t-39.5 -94.5q0 -63 33.5 -91.5t76.5 -28.5q79 0 155 69z" />
    <glyph glyph-name="Cacute" unicode="&#x106;" horiz-adv-x="705" 
d="M62 0zM225 32.5q-82 49.5 -122.5 138.5t-40.5 207q0 112 40 201t121.5 141t202.5 52q53 0 94.5 -8.5t89.5 -28.5v-73q-83 41 -183 41q-89 0 -154 -41.5t-99 -115.5t-34 -168q1 -97 34.5 -170.5t97.5 -114.5t154 -41q55 0 107.5 15t110.5 43l26 -66q-58 -30 -122 -45.5
t-122 -15.5q-119 0 -201 49.5zM451 989h90l-121 -153h-75z" />
    <glyph glyph-name="cacute" unicode="&#x107;" horiz-adv-x="546" 
d="M62 0zM130 63q-68 79 -68 213q0 133 68 211t195 78q43 0 75 -6t68 -21v-74q-37 17 -69.5 24t-70.5 7q-99 -1 -144 -60t-45 -158q0 -101 44.5 -161.5t143.5 -61.5q74 0 159 41l25 -65q-89 -47 -186 -47q-127 1 -195 80zM371 809h90l-121 -153h-75z" />
    <glyph glyph-name="Cdotaccent" unicode="&#x10a;" horiz-adv-x="705" 
d="M62 0zM225 32.5q-82 49.5 -122.5 138.5t-40.5 207q0 112 40 201t121.5 141t202.5 52q53 0 94.5 -8.5t89.5 -28.5v-73q-83 41 -183 41q-89 0 -154 -41.5t-99 -115.5t-34 -168q1 -97 34.5 -170.5t97.5 -114.5t154 -41q55 0 107.5 15t110.5 43l26 -66q-58 -30 -122 -45.5
t-122 -15.5q-119 0 -201 49.5zM349 971h74v-117h-74v117z" />
    <glyph glyph-name="cdotaccent" unicode="&#x10b;" horiz-adv-x="546" 
d="M62 0zM130 63q-68 79 -68 213q0 133 68 211t195 78q43 0 75 -6t68 -21v-74q-37 17 -69.5 24t-70.5 7q-99 -1 -144 -60t-45 -158q0 -101 44.5 -161.5t143.5 -61.5q74 0 159 41l25 -65q-89 -47 -186 -47q-127 1 -195 80zM270 791h74v-117h-74v117z" />
    <glyph glyph-name="Ccaron" unicode="&#x10c;" horiz-adv-x="705" 
d="M62 0zM225 32.5q-82 49.5 -122.5 138.5t-40.5 207q0 112 40 201t121.5 141t202.5 52q53 0 94.5 -8.5t89.5 -28.5v-73q-83 41 -183 41q-89 0 -154 -41.5t-99 -115.5t-34 -168q1 -97 34.5 -170.5t97.5 -114.5t154 -41q55 0 107.5 15t110.5 43l26 -66q-58 -30 -122 -45.5
t-122 -15.5q-119 0 -201 49.5zM544 989l-116 -153h-85l-116 153h85l74 -111l73 111h85z" />
    <glyph glyph-name="ccaron" unicode="&#x10d;" horiz-adv-x="546" 
d="M62 0zM130 63q-68 79 -68 213q0 133 68 211t195 78q43 0 75 -6t68 -21v-74q-37 17 -69.5 24t-70.5 7q-99 -1 -144 -60t-45 -158q0 -101 44.5 -161.5t143.5 -61.5q74 0 159 41l25 -65q-89 -47 -186 -47q-127 1 -195 80zM464 809l-116 -153h-85l-116 153h85l74 -111l73 111
h85z" />
    <glyph glyph-name="Dcaron" unicode="&#x10e;" horiz-adv-x="795" 
d="M113 0zM636.5 661.5q92.5 -96.5 92.5 -283.5q0 -188 -92 -283t-275 -95h-249v758h249q182 0 274.5 -96.5zM578.5 144q72.5 75 72.5 237q0 158 -73.5 233t-215.5 75h-172v-620h172q144 0 216.5 75zM529 989l-116 -153h-85l-116 153h85l74 -111l73 111h85z" />
    <glyph glyph-name="dcaron" unicode="&#x10f;" horiz-adv-x="634" 
d="M62 0zM539 846v-846h-74v54q-81 -71 -162 -71q-110 0 -175.5 74.5t-65.5 217.5q0 142 65.5 216t175.5 74q82 0 162 -70v351h74zM465 121v306q-78 68 -155 68q-84 0 -127.5 -56t-43.5 -164q0 -109 43 -165t128 -56q78 0 155 67zM646 750h74l-59 -202h-65z" />
    <glyph glyph-name="Dcroat" unicode="&#x110;" horiz-adv-x="795" 
d="M24 0zM636.5 661.5q92.5 -96.5 92.5 -283.5q0 -188 -92 -283t-275 -95h-249v349h-89v64h89v345h249q182 0 274.5 -96.5zM578.5 144q72.5 75 72.5 237q0 158 -73.5 233t-215.5 75h-172v-276h196v-64h-196v-280h172q144 0 216.5 75z" />
    <glyph glyph-name="dcroat" unicode="&#x111;" horiz-adv-x="634" 
d="M604 659h-65v-659h-74v54q-81 -71 -162 -71q-110 0 -175.5 74.5t-65.5 217.5q0 142 65.5 216t175.5 74q82 0 162 -70v164h-179v62h179v125h74v-125h65v-62zM465 121v306q-78 68 -155 68q-84 0 -127.5 -56t-43.5 -164q0 -109 43 -165t128 -56q78 0 155 67z" />
    <glyph glyph-name="Emacron" unicode="&#x112;" horiz-adv-x="628" 
d="M113 0zM190 942h309v-58h-309v58zM568 69v-69h-455v758h450v-69h-373v-273h323v-69h-323v-278h378z" />
    <glyph glyph-name="emacron" unicode="&#x113;" horiz-adv-x="578" 
d="M62 0zM139 277q0 -101 46 -163t147 -62q73 0 162 41l24 -64q-88 -46 -190 -46q-127 0 -196.5 80t-69.5 213q0 92 32 157t87.5 98.5t124.5 33.5q105 0 165 -66t61 -191v-29h-393v-2zM198.5 458.5q-42.5 -37.5 -54.5 -112.5h310q-6 77 -42 113.5t-106 36.5
q-65 0 -107.5 -37.5zM151 762h309v-58h-309v58z" />
    <glyph glyph-name="Edotaccent" unicode="&#x116;" horiz-adv-x="628" 
d="M113 0zM568 69v-69h-455v758h450v-69h-373v-273h323v-69h-323v-278h378zM300 971h74v-117h-74v117z" />
    <glyph glyph-name="edotaccent" unicode="&#x117;" horiz-adv-x="578" 
d="M62 0zM139 277q0 -101 46 -163t147 -62q73 0 162 41l24 -64q-88 -46 -190 -46q-127 0 -196.5 80t-69.5 213q0 92 32 157t87.5 98.5t124.5 33.5q105 0 165 -66t61 -191v-29h-393v-2zM198.5 458.5q-42.5 -37.5 -54.5 -112.5h310q-6 77 -42 113.5t-106 36.5
q-65 0 -107.5 -37.5zM270 791h74v-117h-74v117z" />
    <glyph glyph-name="Eogonek" unicode="&#x118;" horiz-adv-x="628" 
d="M113 0zM568 69v-69h-455v758h450v-69h-373v-273h323v-69h-323v-278h378zM429.5 -206.5q-27.5 23.5 -27.5 63.5q0 38 23 72t70 71h72q-49 -40 -75 -70.5t-26 -63.5q0 -18 12.5 -29t36.5 -11q30 0 52 12v-56q-28 -12 -57 -12q-53 0 -80.5 23.5z" />
    <glyph glyph-name="eogonek" unicode="&#x119;" horiz-adv-x="578" 
d="M139 277q0 -101 46 -163t147 -62q73 0 162 41l24 -64l-18 -9q-61 -44 -93 -80t-32 -74q0 -18 12.5 -29t36.5 -11q29 0 52 12v-56q-30 -12 -57 -12q-54 0 -81.5 23.5t-27.5 63.5q0 35 18 66.5t55 62.5q-27 -3 -55 -3q-127 0 -196.5 80t-69.5 213q0 92 32 157t87.5 98.5
t124.5 33.5q105 0 165 -66t61 -191v-29h-393v-2zM198.5 458.5q-42.5 -37.5 -54.5 -112.5h310q-6 77 -42 113.5t-106 36.5q-65 0 -107.5 -37.5z" />
    <glyph glyph-name="Ecaron" unicode="&#x11a;" horiz-adv-x="628" 
d="M113 0zM568 69v-69h-455v758h450v-69h-373v-273h323v-69h-323v-278h378zM494 989l-116 -153h-85l-116 153h85l74 -111l73 111h85z" />
    <glyph glyph-name="ecaron" unicode="&#x11b;" horiz-adv-x="578" 
d="M62 0zM139 277q0 -101 46 -163t147 -62q73 0 162 41l24 -64q-88 -46 -190 -46q-127 0 -196.5 80t-69.5 213q0 92 32 157t87.5 98.5t124.5 33.5q105 0 165 -66t61 -191v-29h-393v-2zM198.5 458.5q-42.5 -37.5 -54.5 -112.5h310q-6 77 -42 113.5t-106 36.5
q-65 0 -107.5 -37.5zM464 809l-116 -153h-85l-116 153h85l74 -111l73 111h85z" />
    <glyph glyph-name="Gbreve" unicode="&#x11e;" horiz-adv-x="776" 
d="M62 0zM687 463v-410q-60 -34 -130 -52t-131 -18q-118 0 -200 49.5t-123 138.5t-41 207q0 112 39.5 201t121.5 141t203 52q66 0 111.5 -12.5t102.5 -37.5v-76q-51 28 -100.5 42.5t-113.5 14.5q-89 0 -153.5 -41t-98.5 -114t-34 -167q0 -98 33.5 -172t98 -115.5
t154.5 -41.5q47 0 92 11.5t93 32.5v296h-306v71h382zM299.5 872.5q-41.5 36.5 -41.5 105.5v9h63v-8q0 -44 21.5 -65t68.5 -21t68.5 21t21.5 65v8h63v-9q3 -69 -39 -105.5t-114 -36.5q-70 0 -111.5 36.5z" />
    <glyph glyph-name="gbreve" unicode="&#x11f;" horiz-adv-x="614" 
d="M61 0zM539 549v-564q0 -74 -19 -125t-69.5 -81t-141.5 -30q-59 0 -101.5 8t-90.5 28v77q43 -20 87 -31t83 -11q78 0 116.5 20t50 56.5t11.5 98.5v79q-83 -71 -162 -71q-72 0 -126.5 32.5t-85 96t-30.5 153.5q0 137 66 208.5t176 71.5q80 0 162 -70v54h74zM465 141v286
q-78 68 -156 68q-83 0 -127 -56t-44 -154q0 -101 43.5 -156t127.5 -55q79 0 156 67zM200.5 692.5q-41.5 36.5 -41.5 105.5v9h63v-8q0 -44 21.5 -65t68.5 -21t68.5 21t21.5 65v8h63v-9q3 -69 -39 -105.5t-114 -36.5q-70 0 -111.5 36.5z" />
    <glyph glyph-name="Gdotaccent" unicode="&#x120;" horiz-adv-x="776" 
d="M62 0zM687 463v-410q-60 -34 -130 -52t-131 -18q-118 0 -200 49.5t-123 138.5t-41 207q0 112 39.5 201t121.5 141t203 52q66 0 111.5 -12.5t102.5 -37.5v-76q-51 28 -100.5 42.5t-113.5 14.5q-89 0 -153.5 -41t-98.5 -114t-34 -167q0 -98 33.5 -172t98 -115.5
t154.5 -41.5q47 0 92 11.5t93 32.5v296h-306v71h382zM374 971h74v-117h-74v117z" />
    <glyph glyph-name="gdotaccent" unicode="&#x121;" horiz-adv-x="614" 
d="M61 0zM539 549v-564q0 -74 -19 -125t-69.5 -81t-141.5 -30q-59 0 -101.5 8t-90.5 28v77q43 -20 87 -31t83 -11q78 0 116.5 20t50 56.5t11.5 98.5v79q-83 -71 -162 -71q-72 0 -126.5 32.5t-85 96t-30.5 153.5q0 137 66 208.5t176 71.5q80 0 162 -70v54h74zM465 141v286
q-78 68 -156 68q-83 0 -127 -56t-44 -154q0 -101 43.5 -156t127.5 -55q79 0 156 67zM275 791h74v-117h-74v117z" />
    <glyph glyph-name="Gcommaaccent" unicode="&#x122;" horiz-adv-x="776" 
d="M62 0zM687 463v-410q-60 -34 -130 -52t-131 -18q-118 0 -200 49.5t-123 138.5t-41 207q0 112 39.5 201t121.5 141t203 52q66 0 111.5 -12.5t102.5 -37.5v-76q-51 28 -100.5 42.5t-113.5 14.5q-89 0 -153.5 -41t-98.5 -114t-34 -167q0 -98 33.5 -172t98 -115.5
t154.5 -41.5q47 0 92 11.5t93 32.5v296h-306v71h382zM379 -80h80l-40 -166h-72z" />
    <glyph glyph-name="gcommaaccent" unicode="&#x123;" horiz-adv-x="614" 
d="M61 0zM539 549v-564q0 -74 -19 -125t-69.5 -81t-141.5 -30q-59 0 -101.5 8t-90.5 28v77q43 -20 87 -31t83 -11q78 0 116.5 20t50 56.5t11.5 98.5v79q-83 -71 -162 -71q-72 0 -126.5 32.5t-85 96t-30.5 153.5q0 137 66 208.5t176 71.5q80 0 162 -70v54h74zM465 141v286
q-78 68 -156 68q-83 0 -127 -56t-44 -154q0 -101 43.5 -156t127.5 -55q79 0 156 67zM311 843h72l-32 -166h-80z" />
    <glyph glyph-name="Hbar" unicode="&#x126;" horiz-adv-x="775" 
d="M669 758v-758h-77v346h-402v-346h-77v758h77v-138h402v138h77zM592 416v135h-402v-135h402z" />
    <glyph glyph-name="hbar" unicode="&#x127;" horiz-adv-x="625" 
d="M487.5 508.5q47.5 -52.5 47.5 -176.5v-332h-74v332q0 87 -28 123t-99 36q-84 0 -165 -73v-418h-74v659h-65v62h65v125h74v-125h179v-62h-179v-172q39 35 83 54.5t88 19.5q100 0 147.5 -52.5z" />
    <glyph glyph-name="Imacron" unicode="&#x12a;" horiz-adv-x="303" 
d="M0 0zM113 758h77v-758h-77v758zM-3 942h309v-58h-309v58z" />
    <glyph glyph-name="imacron" unicode="&#x12b;" horiz-adv-x="264" 
d="M0 0zM95 549h74v-549h-74v549zM-24 762h309v-58h-309v58z" />
    <glyph glyph-name="Iogonek" unicode="&#x12e;" horiz-adv-x="303" 
d="M190 758v-758h-4q-49 -40 -75 -70.5t-26 -63.5q0 -18 12.5 -29t36.5 -11q30 0 52 12v-56q-28 -12 -57 -12q-53 0 -80.5 23.5t-27.5 63.5q0 38 24 72t72 71h-4v758h77z" />
    <glyph glyph-name="iogonek" unicode="&#x12f;" horiz-adv-x="264" 
d="M169 808v-151h-74v151h74zM95 549h74v-549h-3q-49 -39 -74.5 -70t-25.5 -64q0 -18 12 -29t36 -11q29 0 52 12v-56q-30 -12 -57 -12q-53 0 -80 23.5t-27 63.5q0 38 24 72t72 71h-3v549z" />
    <glyph glyph-name="Idotaccent" unicode="&#x130;" horiz-adv-x="303" 
d="M113 0zM113 758h77v-758h-77v758zM115 971h74v-117h-74v117z" />
    <glyph glyph-name="dotlessi" unicode="&#x131;" horiz-adv-x="264" 
d="M95 549h74v-549h-74v549z" />
    <glyph glyph-name="IJ" unicode="&#x132;" horiz-adv-x="612" 
d="M113 0zM113 758h77v-758h-77v758zM312 -93v70q20 -4 48 -4q25 0 37.5 8.5t18 32t5.5 69.5v675h77v-681q0 -71 -12 -108t-40.5 -52t-83.5 -15q-27 0 -50 5z" />
    <glyph glyph-name="ij" unicode="&#x133;" horiz-adv-x="528" 
d="M95 0zM95 808h74v-151h-74v151zM95 549h74v-549h-74v549zM359 808h74v-151h-74v151zM249 -245v69q20 -4 48 -4q25 0 38 8.5t18.5 30t5.5 65.5v626h74v-642q0 -62 -12 -96t-40.5 -48.5t-79.5 -14.5q-24 0 -52 6z" />
    <glyph glyph-name="Kcommaaccent" unicode="&#x136;" horiz-adv-x="674" 
d="M113 0zM246 359l-56 -57v-302h-77v758h77v-354l344 354h98l-332 -343l337 -415h-100zM288 -80h80l-40 -166h-72z" />
    <glyph glyph-name="kcommaaccent" unicode="&#x137;" horiz-adv-x="565" 
d="M95 0zM233 272l-64 -65v-207h-74v846h74v-543l239 243h94l-218 -222l255 -324h-92zM247 -80h80l-40 -166h-72z" />
    <glyph glyph-name="Lacute" unicode="&#x139;" horiz-adv-x="558" 
d="M110 0zM518 71v-71h-405v758h77v-687h328zM216 989h90l-121 -153h-75z" />
    <glyph glyph-name="lacute" unicode="&#x13a;" horiz-adv-x="304" 
d="M90 0zM125 15q-30 28 -30 98v733h74v-717q0 -41 13 -56t49 -15q28 0 48 4v-69q-29 -6 -52 -6q-72 0 -102 28zM196 1109h90l-121 -153h-75z" />
    <glyph glyph-name="Lcommaaccent" unicode="&#x13b;" horiz-adv-x="558" 
d="M113 0zM518 71v-71h-405v758h77v-687h328zM269 -80h80l-40 -166h-72z" />
    <glyph glyph-name="lcommaaccent" unicode="&#x13c;" horiz-adv-x="304" 
d="M95 0zM125 15q-30 28 -30 98v733h74v-717q0 -41 13 -56t49 -15q28 0 48 4v-69q-29 -6 -52 -6q-72 0 -102 28zM159 -80h80l-40 -166h-72z" />
    <glyph glyph-name="Lcaron" unicode="&#x13d;" horiz-adv-x="558" 
d="M113 0zM518 71v-71h-405v758h77v-687h328zM334 758h74l-59 -202h-65z" />
    <glyph glyph-name="lcaron" unicode="&#x13e;" horiz-adv-x="304" 
d="M95 0zM125 15q-30 28 -30 98v733h74v-717q0 -41 13 -56t49 -15q28 0 48 4v-69q-29 -6 -52 -6q-72 0 -102 28zM295 758h74l-59 -202h-65z" />
    <glyph glyph-name="Ldot" unicode="&#x13f;" horiz-adv-x="558" 
d="M113 0zM518 71v-71h-405v758h77v-687h328zM360 462h84v-156h-84v156z" />
    <glyph glyph-name="ldot" unicode="&#x140;" horiz-adv-x="304" 
d="M95 0zM125 15q-30 28 -30 98v733h74v-717q0 -41 13 -56t49 -15q28 0 48 4v-69q-29 -6 -52 -6q-72 0 -102 28zM230 418h84v-156h-84v156z" />
    <glyph glyph-name="Lslash" unicode="&#x141;" horiz-adv-x="558" 
d="M518 71v-71h-405v282l-100 -40v68l100 41v407h77v-376l255 102v-68l-255 -103v-242h328z" />
    <glyph glyph-name="lslash" unicode="&#x142;" horiz-adv-x="304" 
d="M279 62v-69q-29 -6 -52 -6q-72 0 -102 28t-30 98v268l-86 -32v66l86 32v399h74v-371l107 40v-67l-107 -40v-279q0 -41 13 -56t49 -15q28 0 48 4z" />
    <glyph glyph-name="Nacute" unicode="&#x143;" horiz-adv-x="782" 
d="M113 0zM669 758v-758h-80l-399 625v-625h-77v758h81l398 -625v625h77zM469 989h90l-121 -153h-75z" />
    <glyph glyph-name="nacute" unicode="&#x144;" horiz-adv-x="625" 
d="M95 0zM487.5 508.5q47.5 -52.5 47.5 -176.5v-332h-74v332q0 87 -28 123t-99 36q-84 0 -165 -73v-418h-74v549h74v-62q39 35 83 54.5t88 19.5q100 0 147.5 -52.5zM380 809h90l-121 -153h-75z" />
    <glyph glyph-name="Ncommaaccent" unicode="&#x145;" horiz-adv-x="782" 
d="M113 0zM669 758v-758h-80l-399 625v-625h-77v758h81l398 -625v625h77zM323 -80h80l-40 -166h-72z" />
    <glyph glyph-name="ncommaaccent" unicode="&#x146;" horiz-adv-x="625" 
d="M95 0zM487.5 508.5q47.5 -52.5 47.5 -176.5v-332h-74v332q0 87 -28 123t-99 36q-84 0 -165 -73v-418h-74v549h74v-62q39 35 83 54.5t88 19.5q100 0 147.5 -52.5zM277 -80h80l-40 -166h-72z" />
    <glyph glyph-name="Ncaron" unicode="&#x147;" horiz-adv-x="782" 
d="M0 0zM669 758v-758h-80l-399 625v-625h-77v758h81l398 -625v625h77zM4 979h74l-59 -202h-65z" />
    <glyph glyph-name="ncaron" unicode="&#x148;" horiz-adv-x="625" 
d="M0 0zM487.5 508.5q47.5 -52.5 47.5 -176.5v-332h-74v332q0 87 -28 123t-99 36q-84 0 -165 -73v-418h-74v549h74v-62q39 35 83 54.5t88 19.5q100 0 147.5 -52.5zM0 758h74l-59 -202h-65z" />
    <glyph glyph-name="Eng" unicode="&#x14a;" horiz-adv-x="775" 
d="M669 758v-764q0 -70 -12 -107t-40.5 -52t-83.5 -15q-26 0 -50 4v71q25 -5 48 -5q25 0 37.5 8.5t18 32t5.5 69.5v2l-402 624v-626h-77v758h81l398 -620v620h77z" />
    <glyph glyph-name="eng" unicode="&#x14b;" horiz-adv-x="615" 
d="M487.5 508.5q47.5 -52.5 47.5 -176.5v-424q0 -62 -12 -96t-40 -48.5t-79 -14.5q-24 0 -53 6v69q21 -4 49 -4q25 0 37.5 8t18 30t5.5 66v408q0 87 -28 123t-99 36q-84 0 -165 -73v-418h-74v549h74v-62q39 35 83 54.5t88 19.5q100 0 147.5 -52.5z" />
    <glyph glyph-name="Omacron" unicode="&#x14c;" horiz-adv-x="832" 
d="M62 0zM222 34.5q-80 51.5 -120 141t-40 202.5q0 111 40 200t120 141.5t195 52.5q113 0 193 -52.5t120.5 -142t40.5 -199.5q0 -113 -40.5 -202.5t-120.5 -141t-193 -51.5q-115 0 -195 51.5zM565 95q62 43 94.5 118t32.5 168q0 90 -32.5 163t-95 116t-147.5 43
q-88 0 -150.5 -43t-94 -117t-31.5 -165q0 -93 31.5 -167t94 -116.5t150.5 -42.5q86 0 148 43zM262 942h309v-58h-309v58z" />
    <glyph glyph-name="omacron" unicode="&#x14d;" horiz-adv-x="653" 
d="M62 0zM181.5 21.5q-59.5 38.5 -89.5 104.5t-30 149q0 82 30 148t89.5 104t145.5 38t145.5 -38t89.5 -104t30 -148q0 -83 -30 -149t-89.5 -104.5t-145.5 -38.5t-145.5 38.5zM465.5 115q49.5 62 49.5 160q0 97 -49.5 159t-138.5 62t-138.5 -62t-49.5 -159q0 -98 49.5 -160
t138.5 -62t138.5 62zM171 762h309v-58h-309v58z" />
    <glyph glyph-name="Ohungarumlaut" unicode="&#x150;" horiz-adv-x="832" 
d="M62 0zM222 34.5q-80 51.5 -120 141t-40 202.5q0 111 40 200t120 141.5t195 52.5q113 0 193 -52.5t120.5 -142t40.5 -199.5q0 -113 -40.5 -202.5t-120.5 -141t-193 -51.5q-115 0 -195 51.5zM565 95q62 43 94.5 118t32.5 168q0 90 -32.5 163t-95 116t-147.5 43
q-88 0 -150.5 -43t-94 -117t-31.5 -165q0 -93 31.5 -167t94 -116.5t150.5 -42.5q86 0 148 43zM572 989h87l-121 -153h-72zM393 989h87l-121 -153h-72z" />
    <glyph glyph-name="ohungarumlaut" unicode="&#x151;" horiz-adv-x="653" 
d="M62 0zM181.5 21.5q-59.5 38.5 -89.5 104.5t-30 149q0 82 30 148t89.5 104t145.5 38t145.5 -38t89.5 -104t30 -148q0 -83 -30 -149t-89.5 -104.5t-145.5 -38.5t-145.5 38.5zM465.5 115q49.5 62 49.5 160q0 97 -49.5 159t-138.5 62t-138.5 -62t-49.5 -159q0 -98 49.5 -160
t138.5 -62t138.5 62zM482 809h87l-121 -153h-72zM303 809h86l-121 -153h-71z" />
    <glyph glyph-name="OE" unicode="&#x152;" horiz-adv-x="1120" 
d="M1060 69v-69h-627q-182 0 -274.5 96.5t-92.5 283.5q0 188 92 283t275 95h622v-69h-373v-273h323v-69h-323v-278h378zM605 69v620h-172q-144 0 -216 -74.5t-72 -237.5q0 -158 73 -233t215 -75h172z" />
    <glyph glyph-name="oe" unicode="&#x153;" horiz-adv-x="1031" 
d="M592 277q0 -101 46 -163t147 -62q73 0 162 41l24 -64q-88 -46 -190 -46q-82 0 -139.5 34.5t-88.5 98.5q-31 -62 -88.5 -97.5t-138.5 -35.5q-85 0 -144.5 38.5t-89.5 104.5t-30 149q0 82 30 148t89.5 104t144.5 38q80 0 137.5 -35t88.5 -96q30 64 85 97.5t124 33.5
q104 0 163.5 -66t60.5 -191v-29h-393v-2zM651.5 458.5q-42.5 -37.5 -54.5 -112.5h310q-6 77 -42 113.5t-106 36.5q-65 0 -107.5 -37.5zM465.5 115q49.5 62 49.5 160q0 97 -49.5 159t-138.5 62t-138.5 -62t-49.5 -159q0 -98 49.5 -160t138.5 -62t138.5 62z" />
    <glyph glyph-name="Racute" unicode="&#x154;" horiz-adv-x="698" 
d="M113 0zM352 332h-162v-332h-77v758h256q237 0 237 -214q0 -88 -42.5 -140.5t-128.5 -66.5l209 -337h-88zM190 401h179q158 0 158 146q0 74 -39.5 108t-118.5 34h-179v-288zM387 989h90l-121 -153h-75z" />
    <glyph glyph-name="racute" unicode="&#x155;" horiz-adv-x="393" 
d="M95 0zM363 561v-70h-23q-88 0 -171 -74v-417h-74v549h74v-64q39 36 83 56t88 20h23zM299 809h90l-121 -153h-75z" />
    <glyph glyph-name="Rcommaaccent" unicode="&#x156;" horiz-adv-x="698" 
d="M113 0zM352 332h-162v-332h-77v758h256q237 0 237 -214q0 -88 -42.5 -140.5t-128.5 -66.5l209 -337h-88zM190 401h179q158 0 158 146q0 74 -39.5 108t-118.5 34h-179v-288zM297 -80h80l-40 -166h-72z" />
    <glyph glyph-name="rcommaaccent" unicode="&#x157;" horiz-adv-x="393" 
d="M57 0zM363 561v-70h-23q-88 0 -171 -74v-417h-74v549h74v-64q39 36 83 56t88 20h23zM89 -80h80l-40 -166h-72z" />
    <glyph glyph-name="Rcaron" unicode="&#x158;" horiz-adv-x="698" 
d="M113 0zM352 332h-162v-332h-77v758h256q237 0 237 -214q0 -88 -42.5 -140.5t-128.5 -66.5l209 -337h-88zM190 401h179q158 0 158 146q0 74 -39.5 108t-118.5 34h-179v-288zM479 989l-116 -153h-85l-116 153h85l74 -111l73 111h85z" />
    <glyph glyph-name="rcaron" unicode="&#x159;" horiz-adv-x="393" 
d="M75 0zM363 561v-70h-23q-88 0 -171 -74v-417h-74v549h74v-64q39 36 83 56t88 20h23zM392 809l-116 -153h-85l-116 153h85l74 -111l73 111h85z" />
    <glyph glyph-name="Sacute" unicode="&#x15a;" horiz-adv-x="636" 
d="M64 0zM64 37v73q111 -58 254 -58q89 0 130.5 38t42.5 101q0 59 -39 89.5t-109 50.5l-68 19q-57 17 -97.5 38.5t-67 63t-26.5 106.5q0 105 60.5 159.5t170.5 54.5q65 0 115 -12t102 -37v-72q-101 52 -217 52q-78 0 -115.5 -38.5t-37.5 -104.5q1 -60 36.5 -89.5
t105.5 -48.5l69 -19q60 -16 102 -39t68 -64.5t26 -107.5q-1 -97 -67.5 -153t-183.5 -56q-142 0 -254 54zM390 989h90l-121 -153h-75z" />
    <glyph glyph-name="sacute" unicode="&#x15b;" horiz-adv-x="501" 
d="M54 0zM148.5 -7q-45.5 10 -94.5 33v78q91 -52 198 -52q60 0 87.5 26t27.5 67t-22.5 60t-71.5 33l-58 15q-67 17 -106.5 52.5t-39.5 108.5q0 70 46 110.5t135 40.5q49 0 88 -9t79 -27v-73q-40 19 -77 29.5t-88 10.5q-57 0 -82 -23.5t-25 -57.5q0 -40 23 -59.5t68 -31.5
l58 -15q48 -13 79.5 -29.5t50.5 -48.5t19 -85q0 -78 -52 -120.5t-139 -42.5q-58 0 -103.5 10zM314 809h90l-121 -153h-75z" />
    <glyph glyph-name="Scedilla" unicode="&#x15e;" horiz-adv-x="636" 
d="M508.5 45.5q-59.5 -55.5 -163.5 -61.5l-16 -52q4 1 12 1q52 0 80.5 -26t28.5 -69q0 -46 -32.5 -73.5t-93.5 -27.5q-52 0 -95 20v56q46 -21 92 -21q34 0 50 13t16 32q0 42 -56 42q-37 0 -83 -16l36 121q-120 4 -220 53v73q111 -58 254 -58q89 0 130.5 38t42.5 101
q0 59 -39 89.5t-109 50.5l-68 19q-57 17 -97.5 38.5t-67 63t-26.5 106.5q0 105 60.5 159.5t170.5 54.5q65 0 115 -12t102 -37v-72q-101 52 -217 52q-78 0 -115.5 -38.5t-37.5 -104.5q1 -60 36.5 -89.5t105.5 -48.5l69 -19q60 -16 102 -39t68 -64.5t26 -107.5
q-1 -91 -60.5 -146.5z" />
    <glyph glyph-name="scedilla" unicode="&#x15f;" horiz-adv-x="501" 
d="M398.5 33q-44.5 -42 -119.5 -49l-16 -52q4 1 12 1q52 0 80.5 -26t28.5 -69q0 -46 -32.5 -73.5t-93.5 -27.5q-53 0 -95 20v56q46 -21 92 -21q34 0 50 13t16 32q0 42 -56 42q-37 0 -83 -16l36 121q-45 2 -83.5 12t-80.5 30v78q91 -52 198 -52q60 0 87.5 26t27.5 67
t-22.5 60t-71.5 33l-58 15q-67 17 -106.5 52.5t-39.5 108.5q0 70 46 110.5t135 40.5q49 0 88 -9t79 -27v-73q-40 19 -77 29.5t-88 10.5q-57 0 -82 -23.5t-25 -57.5q0 -40 23 -59.5t68 -31.5l58 -15q48 -13 79.5 -29.5t50.5 -48.5t19 -85q0 -71 -44.5 -113z" />
    <glyph glyph-name="Scaron" unicode="&#x160;" horiz-adv-x="636" 
d="M64 0zM64 37v73q111 -58 254 -58q89 0 130.5 38t42.5 101q0 59 -39 89.5t-109 50.5l-68 19q-57 17 -97.5 38.5t-67 63t-26.5 106.5q0 105 60.5 159.5t170.5 54.5q65 0 115 -12t102 -37v-72q-101 52 -217 52q-78 0 -115.5 -38.5t-37.5 -104.5q1 -60 36.5 -89.5
t105.5 -48.5l69 -19q60 -16 102 -39t68 -64.5t26 -107.5q-1 -97 -67.5 -153t-183.5 -56q-142 0 -254 54zM482 989l-116 -153h-85l-116 153h85l74 -111l73 111h85z" />
    <glyph glyph-name="scaron" unicode="&#x161;" horiz-adv-x="501" 
d="M54 0zM148.5 -7q-45.5 10 -94.5 33v78q91 -52 198 -52q60 0 87.5 26t27.5 67t-22.5 60t-71.5 33l-58 15q-67 17 -106.5 52.5t-39.5 108.5q0 70 46 110.5t135 40.5q49 0 88 -9t79 -27v-73q-40 19 -77 29.5t-88 10.5q-57 0 -82 -23.5t-25 -57.5q0 -40 23 -59.5t68 -31.5
l58 -15q48 -13 79.5 -29.5t50.5 -48.5t19 -85q0 -78 -52 -120.5t-139 -42.5q-58 0 -103.5 10zM408 809l-116 -153h-85l-116 153h85l74 -111l73 111h85z" />
    <glyph glyph-name="uni0162" unicode="&#x162;" horiz-adv-x="624" 
d="M342 0l-21 -68q4 1 12 1q52 0 80.5 -26t28.5 -69q0 -46 -32.5 -73.5t-93.5 -27.5q-52 0 -95 20v56q46 -21 92 -21q34 0 50 13t16 32q0 42 -56 42q-37 0 -83 -16l41 137h-7v687h-234v71h544v-71h-234v-687h-8z" />
    <glyph glyph-name="uni0163" unicode="&#x163;" horiz-adv-x="356" 
d="M303.5 -93q28.5 -26 28.5 -69q0 -46 -32.5 -73.5t-92.5 -27.5q-53 0 -96 20v56q46 -21 92 -21q34 0 50 13t16 32q0 42 -56 42q-35 0 -83 -16l40 133q-34 11 -47.5 40t-13.5 82v357h-70v71h70v190h74v-190h128v-71h-128v-346q0 -41 13 -56t49 -15q30 0 65 8v-70
q-37 -9 -73 -9h-8l-17 -55q3 1 11 1q52 0 80.5 -26z" />
    <glyph glyph-name="Tcaron" unicode="&#x164;" horiz-adv-x="624" 
d="M40 0zM584 687h-234v-687h-76v687h-234v71h544v-71zM470 989l-116 -153h-85l-116 153h85l74 -111l73 111h85z" />
    <glyph glyph-name="tcaron" unicode="&#x165;" horiz-adv-x="356" 
d="M39 0zM183 475v-346q0 -41 13 -56t49 -15q30 0 65 8v-70q-37 -9 -73 -9q-50 0 -77.5 13t-39 41t-11.5 77v357h-70v71h70v190h74v-190h128v-71h-128zM300 808h74l-59 -202h-65z" />
    <glyph glyph-name="Tbar" unicode="&#x166;" horiz-adv-x="614" 
d="M349 687v-158h172v-68h-172v-461h-77v461h-172v68h172v158h-234v71h544v-71h-233z" />
    <glyph glyph-name="tbar" unicode="&#x167;" horiz-adv-x="356" 
d="M183 245v-116q0 -41 13 -56t49 -15q30 0 65 8v-70q-37 -9 -73 -9q-50 0 -77.5 13t-39 41t-11.5 77v127h-70v64h70v166h-70v71h70v190h74v-190h128v-71h-128v-166h128v-64h-128z" />
    <glyph glyph-name="Umacron" unicode="&#x16a;" horiz-adv-x="775" 
d="M109 0zM178.5 54q-69.5 71 -69.5 202v502h77v-502q0 -101 50.5 -152.5t151.5 -51.5q100 0 150.5 51.5t50.5 152.5v502h77v-502q0 -131 -69 -202t-209 -71t-209.5 71zM232 942h309v-58h-309v58z" />
    <glyph glyph-name="umacron" unicode="&#x16b;" horiz-adv-x="625" 
d="M90 0zM530 549v-549h-74v63q-38 -35 -82 -55t-89 -20q-100 0 -147.5 53t-47.5 177v331h74v-331q0 -87 28 -123t100 -36q84 0 164 73v417h74zM153 762h309v-58h-309v58z" />
    <glyph glyph-name="Uring" unicode="&#x16e;" horiz-adv-x="775" 
d="M109 0zM178.5 54q-69.5 71 -69.5 202v502h77v-502q0 -101 50.5 -152.5t151.5 -51.5q100 0 150.5 51.5t50.5 152.5v502h77v-502q0 -131 -69 -202t-209 -71t-209.5 71zM316.5 846.5q-27.5 26.5 -27.5 65.5q0 40 27 65.5t71 25.5q43 0 70 -26t27 -65q0 -40 -27 -66t-70 -26
t-70.5 26.5zM421.5 876.5q13.5 13.5 13.5 35.5t-13 35.5t-35 13.5q-21 0 -35 -13.5t-14 -35.5t14 -35.5t35 -13.5t34.5 13.5z" />
    <glyph glyph-name="uring" unicode="&#x16f;" horiz-adv-x="625" 
d="M90 0zM530 549v-549h-74v63q-38 -35 -82 -55t-89 -20q-100 0 -147.5 53t-47.5 177v331h74v-331q0 -87 28 -123t100 -36q84 0 164 73v417h74zM237.5 666.5q-27.5 26.5 -27.5 65.5q0 40 27 65.5t71 25.5q43 0 70 -26t27 -65q0 -40 -27 -66t-70 -26t-70.5 26.5zM342.5 696.5
q13.5 13.5 13.5 35.5t-13 35.5t-35 13.5q-21 0 -35 -13.5t-14 -35.5t14 -35.5t35 -13.5t34.5 13.5z" />
    <glyph glyph-name="Uhungarumlaut" unicode="&#x170;" horiz-adv-x="775" 
d="M109 0zM178.5 54q-69.5 71 -69.5 202v502h77v-502q0 -101 50.5 -152.5t151.5 -51.5q100 0 150.5 51.5t50.5 152.5v502h77v-502q0 -131 -69 -202t-209 -71t-209.5 71zM542 989h87l-121 -153h-72zM363 989h87l-121 -153h-72z" />
    <glyph glyph-name="uhungarumlaut" unicode="&#x171;" horiz-adv-x="625" 
d="M90 0zM530 549v-549h-74v63q-38 -35 -82 -55t-89 -20q-100 0 -147.5 53t-47.5 177v331h74v-331q0 -87 28 -123t100 -36q84 0 164 73v417h74zM464 809h87l-121 -153h-72zM285 809h86l-121 -153h-71z" />
    <glyph glyph-name="Uogonek" unicode="&#x172;" horiz-adv-x="775" 
d="M666 758v-502q0 -113 -51.5 -181.5t-156.5 -86.5q-42 -33 -64.5 -62t-22.5 -60q0 -18 12.5 -29t36.5 -11q30 0 53 12v-56q-30 -12 -57 -12q-54 0 -81.5 23.5t-27.5 63.5q0 33 18 63.5t54 62.5q-135 2 -202.5 73.5t-67.5 199.5v502h77v-502q0 -101 50.5 -152.5
t151.5 -51.5q100 0 150.5 51.5t50.5 152.5v502h77z" />
    <glyph glyph-name="uogonek" unicode="&#x173;" horiz-adv-x="625" 
d="M530 549v-549q-48 -40 -73.5 -70.5t-25.5 -63.5q0 -18 11.5 -29t35.5 -11q30 0 52 12v-56q-29 -12 -57 -12q-52 0 -79.5 23.5t-27.5 63.5q0 38 24 72t73 71h-7v63q-38 -35 -82 -55t-89 -20q-100 0 -147.5 53t-47.5 177v331h74v-331q0 -87 28 -123t100 -36q84 0 164 73
v417h74z" />
    <glyph glyph-name="Wcircumflex" unicode="&#x174;" horiz-adv-x="1073" 
d="M38 0zM1036 758l-227 -767h-78l-194 647l-194 -647h-78l-227 767h79l187 -652l190 652h85l191 -653l186 653h80zM610 836l-73 111l-74 -111h-85l116 153h85l116 -153h-85z" />
    <glyph glyph-name="wcircumflex" unicode="&#x175;" horiz-adv-x="837" 
d="M22 0zM815 549l-176 -558h-75l-145 446l-145 -446h-75l-177 558h78l136 -453l141 453h83l141 -453l136 453h78zM491 656l-73 111l-74 -111h-85l116 153h85l116 -153h-85z" />
    <glyph glyph-name="Ycircumflex" unicode="&#x176;" horiz-adv-x="708" 
d="M33 0zM392 293v-293h-76v293l-283 465h80l241 -400l242 400h80zM427 836l-73 111l-74 -111h-85l116 153h85l116 -153h-85z" />
    <glyph glyph-name="ycircumflex" unicode="&#x177;" horiz-adv-x="545" 
d="M20 0zM525 549l-250 -638q-28 -71 -46 -103t-44 -45.5t-74 -13.5q-25 0 -50 6v69q21 -4 49 -4q23 0 37.5 9t26.5 30.5t30 66.5l30 77l-214 546h78l174 -449l177 449h76zM345 656l-73 111l-74 -111h-85l116 153h85l116 -153h-85z" />
    <glyph glyph-name="Ydieresis" unicode="&#x178;" horiz-adv-x="708" 
d="M33 0zM392 293v-293h-76v293l-283 465h80l241 -400l242 400h80zM418 971h71v-117h-71v117zM219 971h70v-117h-70v117z" />
    <glyph glyph-name="Zacute" unicode="&#x179;" horiz-adv-x="713" 
d="M80 0zM636 71v-71h-556v69l431 618h-418v71h510v-69l-430 -618h463zM417 989h90l-121 -153h-75z" />
    <glyph glyph-name="zacute" unicode="&#x17a;" horiz-adv-x="527" 
d="M67 0zM470 69v-69h-403v69l298 412h-280v68h363v-68l-298 -412h320zM320 809h90l-121 -153h-75z" />
    <glyph glyph-name="Zdotaccent" unicode="&#x17b;" horiz-adv-x="713" 
d="M80 0zM636 71v-71h-556v69l431 618h-418v71h510v-69l-430 -618h463zM315 971h74v-117h-74v117z" />
    <glyph glyph-name="zdotaccent" unicode="&#x17c;" horiz-adv-x="527" 
d="M67 0zM470 69v-69h-403v69l298 412h-280v68h363v-68l-298 -412h320zM219 791h74v-117h-74v117z" />
    <glyph glyph-name="Zcaron" unicode="&#x17d;" horiz-adv-x="713" 
d="M80 0zM636 71v-71h-556v69l431 618h-418v71h510v-69l-430 -618h463zM510 989l-116 -153h-85l-116 153h85l74 -111l73 111h85z" />
    <glyph glyph-name="zcaron" unicode="&#x17e;" horiz-adv-x="527" 
d="M67 0zM470 69v-69h-403v69l298 412h-280v68h363v-68l-298 -412h320zM413 809l-116 -153h-85l-116 153h85l74 -111l73 111h85z" />
    <glyph glyph-name="florin" unicode="&#x192;" horiz-adv-x="550" 
d="M331 774q-12 -14 -16 -55l-18 -173h111l-13 -71h-106l-73 -709h-74l73 709h-99v71h106l19 179q6 53 20 81.5t42 40.5t79 12q23 0 44 -4v-71q-21 4 -48 4q-35 0 -47 -14z" />
    <glyph glyph-name="Scommaaccent" unicode="&#x218;" horiz-adv-x="636" 
d="M64 0zM64 37v73q111 -58 254 -58q89 0 130.5 38t42.5 101q0 59 -39 89.5t-109 50.5l-68 19q-57 17 -97.5 38.5t-67 63t-26.5 106.5q0 105 60.5 159.5t170.5 54.5q65 0 115 -12t102 -37v-72q-101 52 -217 52q-78 0 -115.5 -38.5t-37.5 -104.5q1 -60 36.5 -89.5
t105.5 -48.5l69 -19q60 -16 102 -39t68 -64.5t26 -107.5q-1 -97 -67.5 -153t-183.5 -56q-142 0 -254 54zM274 -80h80l-40 -166h-72z" />
    <glyph glyph-name="scommaaccent" unicode="&#x219;" horiz-adv-x="501" 
d="M54 0zM148.5 -7q-45.5 10 -94.5 33v78q91 -52 198 -52q60 0 87.5 26t27.5 67t-22.5 60t-71.5 33l-58 15q-67 17 -106.5 52.5t-39.5 108.5q0 70 46 110.5t135 40.5q49 0 88 -9t79 -27v-73q-40 19 -77 29.5t-88 10.5q-57 0 -82 -23.5t-25 -57.5q0 -40 23 -59.5t68 -31.5
l58 -15q48 -13 79.5 -29.5t50.5 -48.5t19 -85q0 -78 -52 -120.5t-139 -42.5q-58 0 -103.5 10zM208 -80h80l-40 -166h-72z" />
    <glyph glyph-name="uni021A" unicode="&#x21a;" horiz-adv-x="624" 
d="M40 0zM584 687h-234v-687h-76v687h-234v71h544v-71zM266 -80h80l-40 -166h-72z" />
    <glyph glyph-name="uni021B" unicode="&#x21b;" horiz-adv-x="356" 
d="M39 0zM183 475v-346q0 -41 13 -56t49 -15q30 0 65 8v-70q-37 -9 -73 -9q-50 0 -77.5 13t-39 41t-11.5 77v357h-70v71h70v190h74v-190h128v-71h-128zM156 -80h80l-40 -166h-72z" />
    <glyph glyph-name="uni0237" unicode="&#x237;" horiz-adv-x="264" 
d="M-15 -245v69q20 -4 48 -4q25 0 38 8.5t18.5 30t5.5 65.5v626h74v-642q0 -62 -12 -96t-40.5 -48.5t-79.5 -14.5q-24 0 -52 6z" />
    <glyph glyph-name="circumflex" unicode="&#x2c6;" horiz-adv-x="649" 
d="M398 656l-73 111l-74 -111h-85l116 153h85l116 -153h-85z" />
    <glyph glyph-name="caron" unicode="&#x2c7;" horiz-adv-x="649" 
d="M483 809l-116 -153h-85l-116 153h85l74 -111l73 111h85z" />
    <glyph glyph-name="breve" unicode="&#x2d8;" horiz-adv-x="649" 
d="M214.5 692.5q-41.5 36.5 -41.5 105.5v9h63v-8q0 -44 21.5 -65t68.5 -21t68.5 21t21.5 65v8h63v-9q3 -69 -39 -105.5t-114 -36.5q-70 0 -111.5 36.5z" />
    <glyph glyph-name="dotaccent" unicode="&#x2d9;" horiz-adv-x="649" 
d="M289 791h74v-117h-74v117z" />
    <glyph glyph-name="ring" unicode="&#x2da;" horiz-adv-x="649" 
d="M254.5 666.5q-27.5 26.5 -27.5 65.5q0 40 27 65.5t71 25.5q43 0 70 -26t27 -65q0 -40 -27 -66t-70 -26t-70.5 26.5zM359.5 696.5q13.5 13.5 13.5 35.5t-13 35.5t-35 13.5q-21 0 -35 -13.5t-14 -35.5t14 -35.5t35 -13.5t34.5 13.5z" />
    <glyph glyph-name="ogonek" unicode="&#x2db;" horiz-adv-x="649" 
d="M237.5 -206.5q-27.5 23.5 -27.5 63.5q0 38 23 72t70 71h72q-49 -40 -75 -70.5t-26 -63.5q0 -18 12.5 -29t36.5 -11q30 0 52 12v-56q-28 -12 -57 -12q-53 0 -80.5 23.5z" />
    <glyph glyph-name="tilde" unicode="&#x2dc;" horiz-adv-x="649" 
d="M199 757q22 24 55 24q29 0 59 -15l37 -19q20 -10 32 -10q30 0 30 44h61q-1 -55 -23 -79t-55 -24q-28 0 -58 15l-37 19q-22 10 -33 10q-30 0 -30 -44h-61q1 55 23 79z" />
    <glyph glyph-name="hungarumlaut" unicode="&#x2dd;" horiz-adv-x="649" 
d="M471 809h87l-121 -153h-72zM292 809h86l-121 -153h-71z" />
    <glyph glyph-name="uni0326" unicode="&#x326;" horiz-adv-x="649" 
d="M-366 -80h80l-40 -166h-72z" />
    <glyph glyph-name="uni0901" unicode="&#x901;" horiz-adv-x="0" 
d="M0 710zM-276 750.5q-49 40.5 -49 115.5v11h60v-11q0 -48 32 -73.5t95 -25.5t95 25.5t32 73.5v11h60v-11q0 -75 -49 -115.5t-138 -40.5t-138 40.5zM-201 920l63 62l63 -62l-63 -62z" />
    <glyph glyph-name="uni0902" unicode="&#x902;" horiz-adv-x="0" 
d="M-201 763l63 62l63 -62l-63 -62z" />
    <glyph glyph-name="uni0903" unicode="&#x903;" horiz-adv-x="302" 
d="M88 433l63 63l63 -63l-63 -62zM88 97l63 63l63 -63l-63 -61z" />
    <glyph glyph-name="uni0904" unicode="&#x904;" horiz-adv-x="719" 
d="M729 641v-58h-115v-583h-71v241h-188q2 -18 2 -28q0 -92 -69 -132.5t-175 -40.5h-58v57h58q75 0 124 25t49 94q0 52 -32 77t-102 25h-51v57h52q67 0 100 31t33 81q0 54 -35 75t-108 21h-57v58h57q109 0 161.5 -34.5t52.5 -115.5q0 -50 -22.5 -85t-68.5 -58q45 -15 67 -49
h210v284h-126v58h126v40q0 42 -9.5 65.5t-36 35t-78.5 11.5h-167q-78 0 -121 18t-60.5 55t-17.5 98v19h71v-19q0 -44 8 -67t35.5 -35t84.5 -12h167q82 0 124 -17.5t56.5 -53t14.5 -98.5v-40h115z" />
    <glyph glyph-name="uni0905" unicode="&#x905;" horiz-adv-x="719" 
d="M729 641v-58h-115v-583h-71v241h-188q2 -18 2 -28q0 -92 -69 -132.5t-175 -40.5h-58v57h58q75 0 124 25t49 94q0 52 -32 77t-102 25h-51v57h52q67 0 100 31t33 81q0 54 -35 75t-108 21h-57v58h57q109 0 161.5 -34.5t52.5 -115.5q0 -50 -22.5 -85t-68.5 -58q45 -15 67 -49
h210v284h-126v58h312z" />
    <glyph glyph-name="uni0906" unicode="&#x906;" horiz-adv-x="999" 
d="M1009 583h-115v-583h-70v583h-115h-95v-583h-71v241h-188q2 -18 2 -28q0 -92 -69 -132.5t-175 -40.5h-58v57h58q75 0 124 25t49 94q0 52 -32 77t-102 25h-51v57h52q67 0 100 31t33 81q0 54 -35 75t-108 21h-57v58h57q109 0 161.5 -34.5t52.5 -115.5q0 -50 -22.5 -85
t-68.5 -58q45 -15 67 -49h210v284h-126v58h292h300v-58z" />
    <glyph glyph-name="uni0907" unicode="&#x907;" horiz-adv-x="510" 
d="M159 405.5q-20 -13.5 -20 -48.5q0 -22 7.5 -38t19.5 -24h124q84 0 128.5 -34t44.5 -104t-45 -106t-127 -36h-13q-80 0 -141 28v-101h-67v232h67v-69q63 -33 138 -33h15q48 0 75 19.5t27 59.5q0 47 -25 67t-77 20h-159q-23 16 -43 49.5t-20 72.5q0 62 37 89t115 27h102
v107h-332v58h530v-58h-127v-164h-173q-41 0 -61 -13.5z" />
    <glyph glyph-name="uni0908" unicode="&#x908;" horiz-adv-x="510" 
d="M159 405.5q-20 -13.5 -20 -48.5q0 -22 7.5 -38t19.5 -24h124q84 0 128.5 -34t44.5 -104t-45 -106t-127 -36h-13q-80 0 -141 28v-101h-67v232h67v-69q63 -33 138 -33h15q48 0 75 19.5t27 59.5q0 47 -25 67t-77 20h-159q-23 16 -43 49.5t-20 72.5q0 62 37 89t115 27h102
v107h-332v58h331q-40 84 -40 154q0 77 44 108.5t103 31.5q40 0 67 -11v-61q-30 15 -63 15q-37 0 -59 -20.5t-22 -67.5q0 -36 10.5 -70t30.5 -79h128v-58h-127v-164h-173q-41 0 -61 -13.5z" />
    <glyph glyph-name="uni0909" unicode="&#x909;" horiz-adv-x="559" 
d="M569 583h-120q35 -35 35 -101q0 -49 -22 -83t-70 -56q47 -17 69.5 -59.5t22.5 -100.5q0 -99 -56.5 -141t-155.5 -42q-212 0 -212 184v50h70v-50q0 -73 38 -100t104 -27q67 0 104.5 27t37.5 100q0 66 -32 98t-101 32h-71v58h72q66 0 99 31.5t33 79.5q0 38 -15 58.5
t-52 41.5h-357v58h579v-58z" />
    <glyph glyph-name="uni090A" unicode="&#x90a;" horiz-adv-x="812" 
d="M820 583h-371q35 -35 35 -101q0 -49 -22 -83t-70 -56q46 -17 70 -60q32 22 64 33t72 11q88 0 129.5 -36t41.5 -127q0 -89 -42.5 -126.5t-128.5 -37.5h-12q-15 0 -31.5 1.5t-27.5 3.5v58q26 -6 57 -6h12q51 0 76.5 23.5t25.5 83.5q0 53 -24 79t-80 26q-37 0 -63.5 -10
t-50.5 -28q4 -20 4 -48q0 -99 -56.5 -141t-155.5 -42q-212 0 -212 184v50h70v-50q0 -73 38 -100t104 -27q67 0 104.5 27t37.5 100q0 66 -32 98t-101 32h-71v58h72q66 0 99 31.5t33 79.5q0 38 -15 58.5t-52 41.5h-357v58h830v-58z" />
    <glyph glyph-name="uni090B" unicode="&#x90b;" horiz-adv-x="831" 
d="M448 583v-235h154v129h70v-135q54 -45 84.5 -88.5t30.5 -93.5q0 -79 -54 -119.5t-141 -40.5h-30v57h30q55 0 90 26t35 78q0 38 -22 69t-65 60h-182v-290h-70v236l-273 -239l-42 48l313 273q-47 45 -85.5 63t-84.5 18q-41 0 -148 -28v65q59 14 92 20.5t58 6.5q49 0 87 -17
t83 -58v195h-388v58h851v-58h-393z" />
    <glyph glyph-name="uni090C" unicode="&#x90c;" horiz-adv-x="766" 
d="M577 583v-155q63 -9 96.5 -47t33.5 -91q0 -54 -25.5 -93.5t-72.5 -86.5q-32 -33 -46.5 -53.5t-14.5 -41.5q0 -28 20 -44t64 -16q29 0 62 12t56 29v-64q-50 -34 -121 -34q-72 0 -112 32.5t-40 80.5q0 36 19.5 65t57.5 67q40 40 61 72t21 73q0 42 -25 63.5t-70 21.5
q-55 0 -83 -36t-30 -103v-36h-71v36q-1 66 -29 102.5t-82 36.5q-55 0 -83.5 -36.5t-29.5 -102.5q2 -79 41 -128t141 -49h19v-57h-19q-135 0 -194 67.5t-59 166.5q0 89 46.5 142.5t133.5 53.5q106 0 151 -78q37 64 114 75v156h-517v58h792v-58h-205z" />
    <glyph glyph-name="uni090D" unicode="&#x90d;" horiz-adv-x="577" 
d="M0 33zM378 310.5q19 6.5 29.5 27t10.5 61.5v184h-241v-291q0 -92 30.5 -136t77 -54.5t124.5 -10.5h83v-58h-83q-98 0 -162 18.5t-102 75.5t-38 165v291h-117v58h597v-58h-98v-184q0 -85 -39 -119t-124 -35h-25v58h25q33 1 52 7.5zM161 750.5q-49 40.5 -49 115.5v11h60
v-11q0 -48 32 -73.5t95 -25.5t95 25.5t32 73.5v11h60v-11q0 -75 -49 -115.5t-138 -40.5t-138 40.5z" />
    <glyph glyph-name="uni090E" unicode="&#x90e;" horiz-adv-x="577" 
d="M378 310.5q19 6.5 29.5 27t10.5 61.5v184h-241v-291q0 -92 30.5 -136t77 -54.5t124.5 -10.5h83v-58h-83q-98 0 -162 18.5t-102 75.5t-38 165v291h-117v58h430v40q0 42 -9.5 65.5t-36 35t-78.5 11.5h-167q-78 0 -121 18t-60.5 55t-17.5 98v19h70v-19q0 -44 8 -67t36 -35
t85 -12h167q82 0 123.5 -17.5t56 -53t14.5 -98.5v-40h97v-58h-98v-184q0 -85 -39 -119t-124 -35h-25v58h25q33 1 52 7.5z" />
    <glyph glyph-name="uni090F" unicode="&#x90f;" horiz-adv-x="577" 
d="M378 310.5q19 6.5 29.5 27t10.5 61.5v184h-241v-291q0 -92 30.5 -136t77 -54.5t124.5 -10.5h83v-58h-83q-98 0 -162 18.5t-102 75.5t-38 165v291h-117v58h597v-58h-98v-184q0 -85 -39 -119t-124 -35h-25v58h25q33 1 52 7.5z" />
    <glyph glyph-name="uni0910" unicode="&#x910;" horiz-adv-x="577" 
d="M378 310.5q19 6.5 29.5 27t10.5 61.5v184h-241v-291q0 -92 30.5 -136t77 -54.5t124.5 -10.5h83v-58h-83q-98 0 -162 18.5t-102 75.5t-38 165v291h-117v58h429l-30 131q-12 51 -36.5 69t-77.5 18h-78v57h78q57 0 91 -10.5t56.5 -41.5t36.5 -92l30 -131h98v-58h-98v-184
q0 -85 -39 -119t-124 -35h-25v58h25q33 1 52 7.5z" />
    <glyph glyph-name="uni0911" unicode="&#x911;" horiz-adv-x="999" 
d="M55 0zM1009 583h-115v-583h-70v583h-115h-95v-583h-71v241h-188q2 -18 2 -28q0 -92 -69 -132.5t-175 -40.5h-58v57h58q75 0 124 25t49 94q0 52 -32 77t-102 25h-51v57h52q67 0 100 31t33 81q0 54 -35 75t-108 21h-57v58h57q109 0 161.5 -34.5t52.5 -115.5
q0 -50 -22.5 -85t-68.5 -58q45 -15 67 -49h210v284h-126v58h292h300v-58zM720 757.5q-49 40.5 -49 115.5v11h60v-11q0 -48 32 -73.5t95 -25.5t95 25.5t32 73.5v11h60v-11q0 -75 -49 -115.5t-138 -40.5t-138 40.5z" />
    <glyph glyph-name="uni0912" unicode="&#x912;" horiz-adv-x="999" 
d="M1009 583h-115v-583h-70v583h-115h-95v-583h-71v241h-188q2 -18 2 -28q0 -92 -69 -132.5t-175 -40.5h-58v57h58q75 0 124 25t49 94q0 52 -32 77t-102 25h-51v57h52q67 0 100 31t33 81q0 54 -35 75t-108 21h-57v58h57q109 0 161.5 -34.5t52.5 -115.5q0 -50 -22.5 -85
t-68.5 -58q45 -15 67 -49h210v284h-126v58h292h115v40q0 42 -9.5 65.5t-36 35t-78.5 11.5h-167q-78 0 -121 18t-60.5 55t-17.5 98v19h70v-19q0 -44 8 -67t36 -35t85 -12h167q82 0 123.5 -17.5t56 -53t14.5 -98.5v-40h115v-58z" />
    <glyph glyph-name="uni0913" unicode="&#x913;" horiz-adv-x="999" 
d="M1009 583h-115v-583h-70v583h-115h-95v-583h-71v241h-188q2 -18 2 -28q0 -92 -69 -132.5t-175 -40.5h-58v57h58q75 0 124 25t49 94q0 52 -32 77t-102 25h-51v57h52q67 0 100 31t33 81q0 54 -35 75t-108 21h-57v58h57q109 0 161.5 -34.5t52.5 -115.5q0 -50 -22.5 -85
t-68.5 -58q45 -15 67 -49h210v284h-126v58h292h114l-30 131q-12 51 -36.5 69t-77.5 18h-78v57h78q57 0 91 -10.5t56.5 -41.5t36.5 -92l30 -131h116v-58z" />
    <glyph glyph-name="uni0914" unicode="&#x914;" horiz-adv-x="999" 
d="M1009 583h-115v-583h-70v583h-115h-95v-583h-71v241h-188q2 -18 2 -28q0 -92 -69 -132.5t-175 -40.5h-58v57h58q75 0 124 25t49 94q0 52 -32 77t-102 25h-51v57h52q67 0 100 31t33 81q0 54 -35 75t-108 21h-57v58h57q109 0 161.5 -34.5t52.5 -115.5q0 -50 -22.5 -85
t-68.5 -58q45 -15 67 -49h210v284h-126v58h292h108l-52 65q-25 31 -47.5 48.5t-54.5 25.5t-82 8h-88v58h88q64 0 101.5 -10t63.5 -32t60 -66l-27 119q-11 49 -37 66t-81 17h-78v57h78q57 0 91 -10.5t56.5 -40.5t35.5 -89l49 -216h116v-58z" />
    <glyph glyph-name="uni0915" unicode="&#x915;" horiz-adv-x="803" 
d="M437 583v-174q50 27 119 27h16q98 -1 143.5 -35t45.5 -119q0 -84 -45.5 -119t-142.5 -35h-12q-15 0 -32 1.5t-28 3.5v58q30 -5 58 -5h12q61 0 90 20t29 76q0 41 -13.5 61.5t-39 27.5t-69.5 7h-15q-68 0 -116 -29v-349h-71v155q-52 -27 -119 -27h-16q-98 1 -143.5 35
t-45.5 119q0 84 45.5 119t142.5 35h12q15 0 32 -1.5t28 -3.5v-58q-30 5 -58 5h-12q-61 0 -90 -20t-29 -76q0 -40 13.5 -60.5t39 -27.5t69.5 -8h15q68 0 116 28v369h-376v58h823v-58h-376z" />
    <glyph glyph-name="uni0916" unicode="&#x916;" horiz-adv-x="827" 
d="M837 583h-115v-583h-71v183q-40 -15 -92 -15h-18q-157 0 -157 134q0 68 39.5 101t99.5 33h12q25 0 52 -5v-57q-24 4 -47 4h-12q-33 0 -53.5 -16.5t-20.5 -59.5q0 -46 22 -61t71 -15h17q49 0 87 15v342h-314v-188q0 -80 -47 -112t-147 -32h-6v-56q0 -78 33.5 -108
t115.5 -30h165v-57h-165q-106 0 -162.5 41.5t-56.5 153.5v234h70v-120h6q44 0 70 6t40 24.5t14 55.5v188h-277v58h847v-58z" />
    <glyph glyph-name="uni0917" unicode="&#x917;" horiz-adv-x="600" 
d="M610 583h-115v-583h-71v583h-189l1 -288q0 -103 -83 -103q-38 0 -66.5 22.5t-48.5 69.5l55 28q14 -31 26 -47t26 -16q12 0 16 10.5t4 35.5v288h-175v58h620v-58z" />
    <glyph glyph-name="uni0918" unicode="&#x918;" horiz-adv-x="598" 
d="M608 641v-58h-115v-583h-71v149q-54 -24 -120 -24h-18q-96 1 -141 34.5t-45 115.5q0 84 53 119q-45 14 -67 44.5t-22 80.5q0 39 11 64h-83v58h618zM422 213v370h-273q-16 -20 -16 -61q1 -56 37 -74.5t117 -18.5h23v-6h9v-51h-32q-61 0 -89.5 -19.5t-28.5 -75.5
q0 -40 13.5 -60t38 -26.5t66.5 -7.5h18q68 0 117 30z" />
    <glyph glyph-name="uni0919" unicode="&#x919;" horiz-adv-x="599" 
d="M609 641v-58h-216v-166h-6v-18h-172q-42 0 -62 -13t-20 -48q0 -22 7.5 -38t19.5 -24h125q83 0 127.5 -34t44.5 -104t-45 -106.5t-127 -36.5h-13q-75 0 -133 17t-111 50l28 54q50 -32 100.5 -47.5t113.5 -15.5h14q48 0 75 19.5t27 59.5q0 47 -25 67t-76 20h-160
q-22 17 -42.5 50t-20.5 72q0 62 37.5 89t115.5 27h107v126h-332v58h619zM516 384l63 -63l-63 -62l-63 62z" />
    <glyph glyph-name="uni091A" unicode="&#x91a;" horiz-adv-x="613" 
d="M623 641v-58h-115v-583h-71v139q-48 -24 -116 -24h-20q-100 0 -149.5 36.5t-49.5 123.5q0 75 39 114h-114v58h321v-58h-117q-28 -15 -43 -41t-15 -70t16 -66.5t44 -30.5t74 -8h17q65 0 113 27v383h-447v58h633z" />
    <glyph glyph-name="uni091B" unicode="&#x91b;" horiz-adv-x="715" 
d="M603 583v-78q35 -21 35 -78v-124q0 -150 -78.5 -216t-200.5 -66h-16q-108 0 -177.5 42.5t-69.5 136.5q0 105 66 143q-49 13 -72 44.5t-23 84.5q0 70 47 111h-124v58h735v-58h-122zM533 583h-310q-39 -15 -62 -40.5t-23 -69.5q1 -56 37.5 -75t120.5 -19h27v-57h-16
q-72 0 -106.5 -26t-34.5 -94q0 -70 51 -97t126 -27h16q89 0 149 50t60 175v122q0 20 -7 28.5t-27 8.5q-18 0 -25.5 -8.5t-7.5 -28.5v-103h-68v105q0 45 23.5 68t76.5 24v64z" />
    <glyph glyph-name="uni091C" unicode="&#x91c;" horiz-adv-x="660" 
d="M670 641v-58h-115v-583h-71v368h-109v-76q0 -95 -36 -138.5t-128 -43.5q-87 0 -124.5 44.5t-37.5 137.5v134h69v-136q0 -63 20.5 -93t72.5 -30q56 0 75 29t19 94v136h179v157h-494v58h680z" />
    <glyph glyph-name="uni091D" unicode="&#x91d;" horiz-adv-x="754" 
d="M764 583h-115v-583h-70v196h-143q2 -14 2 -22q0 -70 -42 -106.5t-117 -36.5h-14q-69 0 -128 23v-96h-67v233h67v-76q55 -26 126 -26h14q43 0 66.5 19.5t23.5 58.5q0 47 -22 67t-67 20h-147q-23 17 -43 50.5t-20 71.5q0 63 37 90t115 27h77v90h-307v58h774v-58zM579 583
h-211v-148h-148q-42 0 -61.5 -13t-19.5 -48q0 -22 8 -38.5t19 -23.5h112q102 0 139 -59h162v330z" />
    <glyph glyph-name="uni091E" unicode="&#x91e;" horiz-adv-x="576" 
d="M586 641v-58h-115v-583h-71v259h-108q-6 -81 -54 -117t-140 -36h-60v58h60q64 0 94.5 27t30.5 95q0 50 -14 76.5t-40.5 36t-70.5 9.5h-60v58h60q93 0 140 -34t54 -115h108v266h-410v58h596z" />
    <glyph glyph-name="uni091F" unicode="&#x91f;" horiz-adv-x="512" 
d="M187.5 394q-30.5 -13 -47 -48t-16.5 -100q0 -66 15 -101t43 -47.5t75 -12.5h19q68 0 98.5 28t30.5 104v30h70v-30q0 -100 -47.5 -145t-151.5 -45h-19q-105 0 -154 49.5t-49 169.5q0 119 52 169t161 50h70v118h-347v58h532v-58h-115v-176h-140q-49 0 -79.5 -13z" />
    <glyph glyph-name="uni0920" unicode="&#x920;" horiz-adv-x="542" 
d="M389 442q46 -23 68 -71t22 -125q0 -120 -49 -169.5t-155 -49.5h-15q-105 0 -154 49.5t-49 169.5t52 169.5t161 49.5q52 0 74 16.5t22 59.5v42h-376v58h562v-58h-115v-42q0 -67 -48 -99zM350.5 97.5q28.5 12.5 43 47.5t14.5 101q0 64 -16 99.5t-46 49t-76 13.5
q-48 0 -78.5 -13t-47 -48.5t-16.5 -100.5q0 -66 15 -101t44.5 -47.5t78.5 -12.5h9q47 0 75.5 12.5z" />
    <glyph glyph-name="uni0921" unicode="&#x921;" horiz-adv-x="500" 
d="M153 386q-20 -13 -20 -48q0 -22 7.5 -38t19.5 -24h125q83 0 127.5 -34t44.5 -104t-45 -106.5t-127 -36.5h-13q-75 0 -133 17t-111 50l28 54q50 -32 100.5 -47.5t113.5 -15.5h14q48 0 75 19.5t27 59.5q0 47 -25 67t-76 20h-160q-22 17 -42.5 50t-20.5 72q0 62 37.5 89
t115.5 27h107v126h-332v58h520v-58h-117v-166h-6v-18h-172q-42 0 -62 -13z" />
    <glyph glyph-name="uni0922" unicode="&#x922;" horiz-adv-x="512" 
d="M187.5 394q-30.5 -13 -47 -48t-16.5 -100q0 -66 15 -101t43 -47.5t75 -12.5h19q66 0 97 20.5t32 70.5v31q0 24 -10.5 34.5t-34.5 10.5t-35 -10.5t-11 -34.5v-45h-67v48q0 49 27 73.5t88 24.5q59 0 86 -26t27 -75v-31q0 -76 -49 -112.5t-150 -36.5h-19q-105 0 -154 49.5
t-49 169.5q0 119 52 169t161 50h70v118h-347v58h532v-58h-115v-176h-140q-49 0 -79.5 -13z" />
    <glyph glyph-name="uni0923" unicode="&#x923;" horiz-adv-x="710" 
d="M720 641v-58h-115v-583h-70v583h-137v-205q0 -89 -36 -125.5t-112 -36.5t-112 36t-36 126v205h-112v58h730zM327 583h-155v-207q0 -58 19 -80t59 -22t58.5 22.5t18.5 79.5v207z" />
    <glyph glyph-name="uni0924" unicode="&#x924;" horiz-adv-x="568" 
d="M578 641v-58h-115v-583h-70v393h-166q-35 0 -55.5 -13.5t-31.5 -49.5t-12 -103q1 -97 29 -133.5t85 -36.5h13v-57h-13q-91 0 -138 53t-47 174q0 122 40.5 172.5t129.5 50.5h166v133h-403v58h588z" />
    <glyph glyph-name="uni0925" unicode="&#x925;" horiz-adv-x="598" 
d="M608 641v-58h-115v-583h-71v186q-33 -19 -70 -28t-69 -9q-83 0 -131.5 34t-85.5 122q59 24 87.5 42t43 49.5t14.5 88.5v38q0 42 -9.5 57.5t-36.5 15.5t-36.5 -16t-9.5 -57v-45h-67v45q0 64 26.5 96.5t86.5 32.5q61 0 87 -32t26 -97v-38q0 -62 -15 -101t-41 -62.5
t-71 -47.5q21 -39 54 -53t80 -14q70 0 137 42v334h-85v58h271z" />
    <glyph glyph-name="uni0926" unicode="&#x926;" horiz-adv-x="516" 
d="M200 412q-35 -12 -53.5 -44t-18.5 -92q0 -59 16.5 -91.5t48.5 -44.5t83 -12h16q41 0 72 9v87h71v-239h-71v94q-31 -8 -76 -8h-16q-110 0 -162.5 46.5t-52.5 157.5q0 113 57 160t176 47h50v101h-350v58h536v-58h-115v-159h-121q-55 0 -90 -12z" />
    <glyph glyph-name="uni0927" unicode="&#x927;" horiz-adv-x="601" 
d="M611 641v-58h-115v-583h-71v128q-55 -23 -124 -23h-17q-99 1 -145 35t-46 117q0 44 13 73.5t41 48.5q-47 15 -69.5 46.5t-22.5 84.5q0 78 45 111t140 33h12q17 0 31 -2v-58l-31 2h-12q-60 0 -87 -18t-27 -72q0 -39 18 -59t51.5 -26.5t89.5 -6.5h33v-59h-31q-64 0 -94 -20
t-30 -76q0 -40 14 -60.5t40 -27.5t70 -8h18q71 0 120 28v392h-82v58h268z" />
    <glyph glyph-name="uni0928" unicode="&#x928;" horiz-adv-x="557" 
d="M567 641v-58h-115v-583h-71v341h-218q-22 0 -31 -6t-9 -21q0 -27 52 -52l-28 -52q-47 20 -70 47t-23 64q0 38 26 57.5t75 19.5h226v185h-391v58h577z" />
    <glyph glyph-name="uni0929" unicode="&#x929;" horiz-adv-x="557" 
d="M0 0zM567 641v-58h-115v-583h-71v341h-218q-22 0 -31 -6t-9 -21q0 -27 52 -52l-28 -52q-47 20 -70 47t-23 64q0 38 26 57.5t75 19.5h226v185h-391v58h577zM175 0l63 63l63 -63l-63 -62z" />
    <glyph glyph-name="uni092A" unicode="&#x92a;" horiz-adv-x="548" 
d="M558 641v-58h-115v-583h-70v239q-53 -32 -114 -32q-89 0 -131.5 39t-42.5 136v201h-95v58h568zM373 302v281h-217v-201q0 -65 24 -91t84 -26q61 0 109 37z" />
    <glyph glyph-name="uni092B" unicode="&#x92b;" horiz-adv-x="806" 
d="M440 583v-174q52 27 120 27h15q98 -1 143.5 -35t45.5 -119q0 -84 -45.5 -119t-141.5 -35h-12q-15 0 -32 1.5t-28 3.5v58q28 -5 58 -5h12q60 0 89 20t29 76q0 41 -13.5 61.5t-39 27.5t-68.5 7h-16q-68 0 -116 -29v-349h-71v239q-51 -32 -114 -32q-86 0 -128 39t-42 136
v201h-95v58h826v-58h-376zM369 301v282h-213v-201q0 -65 23 -91t81 -26q64 0 109 36z" />
    <glyph glyph-name="uni092C" unicode="&#x92c;" horiz-adv-x="542" 
d="M552 641v-58h-115v-583h-71v155q-52 -27 -119 -27h-16q-98 1 -143.5 35t-45.5 119q0 84 45.5 119t142.5 35h12q15 0 32 -1.5t28 -3.5v-58q-30 5 -58 5h-12q-28 0 -49 -3l153 -175q10 4 30 14v369h-376v58h562zM250 186q25 0 37 2l-148 168q-26 -21 -26 -74
q0 -40 13.5 -60.5t39 -27.5t69.5 -8h15z" />
    <glyph glyph-name="uni092D" unicode="&#x92d;" horiz-adv-x="636" 
d="M646 641v-58h-115v-583h-71v254h-228v-94h-70v396q0 22 -7.5 31t-27.5 9q-19 0 -26.5 -9t-7.5 -31v-44h-67v44q0 47 24.5 71.5t78.5 24.5q55 0 79 -24t24 -72v-245h228v272h-104v58h290z" />
    <glyph glyph-name="uni092E" unicode="&#x92e;" horiz-adv-x="572" 
d="M582 641v-58h-115v-583h-71v272h-228v-93h-70v404h-108v58h592zM396 330v253h-228v-253h228z" />
    <glyph glyph-name="uni092F" unicode="&#x92f;" horiz-adv-x="588" 
d="M598 641v-58h-115v-583h-70v200q-33 -17 -69 -25t-64 -8q-58 0 -97.5 13.5t-69.5 47t-55 94.5q76 30 105 61.5t29 78.5q0 59 -37 121h-165v58h608zM413 265v318h-189q18 -32 28 -65.5t10 -57.5q0 -56 -28 -95.5t-91 -71.5q22 -40 56 -54.5t81 -14.5q65 0 133 41z" />
    <glyph glyph-name="uni0930" unicode="&#x930;" horiz-adv-x="442" 
d="M142 251v-56q0 -78 33.5 -108t114.5 -30h106v-57h-106q-106 0 -162.5 41.5t-56.5 153.5v234h71v-120h1q44 0 70 6t40 24.5t14 55.5v188h-277v58h462v-58h-115v-188q0 -80 -47 -112t-147 -32h-1z" />
    <glyph glyph-name="uni0931" unicode="&#x931;" horiz-adv-x="442" 
d="M0 0zM142 251v-56q0 -78 33.5 -108t114.5 -30h106v-57h-106q-106 0 -162.5 41.5t-56.5 153.5v234h71v-120h1q44 0 70 6t40 24.5t14 55.5v188h-277v58h462v-58h-115v-188q0 -80 -47 -112t-147 -32h-1zM-1 -77l63 63l63 -63l-63 -62z" />
    <glyph glyph-name="uni0932" unicode="&#x932;" horiz-adv-x="779" 
d="M789 641v-58h-115l-3 -583h-70l1 368q-25 15 -60 15q-55 0 -83.5 -37t-30.5 -104v-36h-8v-8h-63v36q-1 66 -29 102.5t-82 36.5q-55 0 -83.5 -36.5t-29.5 -102.5q2 -79 41 -128t141 -49h19v-57h-19q-135 0 -194 67.5t-59 166.5q0 89 46.5 142.5t133.5 53.5q102 0 148 -72
q20 39 58 60.5t92 21.5q35 0 62 -9l1 152h-613v58h799z" />
    <glyph glyph-name="uni0933" unicode="&#x933;" horiz-adv-x="753" 
d="M563 583v-130q70 -10 108 -59t38 -118q0 -79 -46.5 -129.5t-132.5 -50.5q-54 0 -93 20.5t-61 57.5q-21 -37 -59.5 -57.5t-91.5 -20.5q-87 0 -134 50.5t-47 129.5q0 78 47 128.5t134 50.5q53 0 91.5 -20.5t59.5 -57.5q37 63 116 76v130h-502v58h773v-58h-200zM313.5 187
q27.5 34 27.5 89t-27.5 88.5t-84.5 33.5q-59 0 -87 -33.5t-28 -88.5t28 -89t87 -34q57 0 84.5 34zM610.5 364.5q-27.5 33.5 -84.5 33.5q-59 0 -86.5 -33.5t-27.5 -88.5t27.5 -89t86.5 -34q57 0 84.5 34t27.5 89t-27.5 88.5z" />
    <glyph glyph-name="uni0934" unicode="&#x934;" horiz-adv-x="753" 
d="M0 0zM563 583v-130q70 -10 108 -59t38 -118q0 -79 -46.5 -129.5t-132.5 -50.5q-54 0 -93 20.5t-61 57.5q-21 -37 -59.5 -57.5t-91.5 -20.5q-87 0 -134 50.5t-47 129.5q0 78 47 128.5t134 50.5q53 0 91.5 -20.5t59.5 -57.5q37 63 116 76v130h-502v58h773v-58h-200z
M313.5 187q27.5 34 27.5 89t-27.5 88.5t-84.5 33.5q-59 0 -87 -33.5t-28 -88.5t28 -89t87 -34q57 0 84.5 34zM610.5 364.5q-27.5 33.5 -84.5 33.5q-59 0 -86.5 -33.5t-27.5 -88.5t27.5 -89t86.5 -34q57 0 84.5 34t27.5 89t-27.5 88.5zM312 0l63 63l63 -63l-63 -62z" />
    <glyph glyph-name="uni0935" unicode="&#x935;" horiz-adv-x="542" 
d="M552 641v-58h-115v-583h-71v155q-52 -27 -119 -27h-16q-98 1 -143.5 35t-45.5 119q0 84 45.5 119t142.5 35h12q15 0 32 -1.5t28 -3.5v-58q-30 5 -58 5h-12q-61 0 -90 -20t-29 -76q0 -40 13.5 -60.5t39 -27.5t69.5 -8h15q68 0 116 28v369h-376v58h562z" />
    <glyph glyph-name="uni0936" unicode="&#x936;" horiz-adv-x="707" 
d="M233.5 95q45.5 -38 125.5 -38h60v-57h-62q-110 0 -174 54.5t-70 179.5h-59v57h95q87 0 133 46.5t47 131.5q0 49 -8.5 76t-28 39t-55.5 12q-47 0 -69.5 -28t-23.5 -96v-43h-70v46q1 88 40 132.5t123 44.5q86 0 124.5 -45.5t38.5 -137.5q-1 -97 -59 -160.5t-159 -73.5
q6 -102 51.5 -140zM717 583h-115v-583h-71v641h186v-58z" />
    <glyph glyph-name="uni0937" unicode="&#x937;" horiz-adv-x="573" 
d="M583 641v-58h-115v-583h-71v241q-58 -34 -127 -34q-94 0 -140 39t-46 136v201h-94v58h593zM397 583h-204l204 -244v244zM182 291.5q27 -26.5 93 -26.5q60 0 103 26l-223 268v-177q0 -64 27 -90.5z" />
    <glyph glyph-name="uni0938" unicode="&#x938;" horiz-adv-x="750" 
d="M760 641v-58h-115v-583h-71v275h-201v57h201v251h-237v-188q0 -80 -47 -112t-147 -32h-6v-56q0 -78 33.5 -108t115.5 -30h160v-57h-160q-106 0 -162.5 41.5t-56.5 153.5v234h70v-120h6q44 0 70 6t40 24.5t14 55.5v188h-277v58h770z" />
    <glyph glyph-name="uni0939" unicode="&#x939;" horiz-adv-x="535" 
d="M159 405.5q-20 -13.5 -20 -48.5q0 -25 12.5 -45.5t32.5 -33.5q43 23 97 23h31q75 0 116 -38t41 -100v-29h-59v29q0 36 -25.5 58.5t-72.5 22.5h-31q-39 0 -71.5 -25.5t-32.5 -85.5q0 -81 52.5 -111t135.5 -30h59v-57h-61q-115 0 -185.5 47t-70.5 153q0 61 29 101
q-27 21 -47.5 53.5t-20.5 70.5q0 62 36.5 89t114.5 27h140v107h-369v58h558v-58h-119v-164h-209q-41 0 -61 -13.5z" />
    <glyph glyph-name="uni093A" unicode="&#x93a;" horiz-adv-x="0" 
d="M-172 903h70v-290h-70v290z" />
    <glyph glyph-name="uni093B" unicode="&#x93b;" 
d="M291 583h-115v-583h-71v583h-115v58h115v262h71v-262h115v-58z" />
    <glyph glyph-name="uni093C" unicode="&#x93c;" horiz-adv-x="0" 
d="M-215 -117l63 63l63 -63l-63 -62z" />
    <glyph glyph-name="uni093D" unicode="&#x93d;" horiz-adv-x="485" 
d="M22 57h127q151 0 151 112q0 42 -23.5 76t-69.5 78q-34 34 -55 58.5t-35.5 56t-14.5 69.5q0 63 40 98.5t126 35.5h162v-58h-154q-56 0 -80 -19t-24 -57q0 -36 21.5 -66.5t65.5 -73.5q36 -36 58 -62t37.5 -60.5t15.5 -75.5q0 -80 -51.5 -124.5t-161.5 -44.5h-135v57z" />
    <glyph glyph-name="uni093E" unicode="&#x93e;" 
d="M291 583h-115v-583h-71v583h-115v58h301v-58z" />
    <glyph glyph-name="uni093F" unicode="&#x93f;" 
d="M590.5 907.5q63.5 -22.5 94.5 -73.5t32 -139v-87h-70v87q0 77 -26 115.5t-72.5 50t-125.5 11.5h-23q-79 0 -125 -11.5t-72 -50t-26 -115.5v-54h115v-58h-115v-583h-71v583h-116v58h116v54q0 88 31 139t95 73.5t168 22.5h23q104 0 167.5 -22.5z" />
    <glyph glyph-name="uni0940" unicode="&#x940;" 
d="M291 583h-115v-583h-71v583h-115v58h115v86q0 63 -10.5 94.5t-30 41t-54.5 9.5h-20q-35 0 -54.5 -9.5t-30 -41t-10.5 -94.5v-119h-71v120q0 76 17 120t53 63t96 19h20q60 0 96 -19t53 -63t17 -120v-87h115v-58z" />
    <glyph glyph-name="uni0941" unicode="&#x941;" horiz-adv-x="0" 
d="M-308 -243.5q-71 36.5 -138 93.5l38 42q61 -54 124 -84.5t139 -30.5q55 0 83.5 22t28.5 64q0 38 -23.5 59.5t-66.5 21.5h-69v57h72q70 0 113.5 -36t44.5 -101q0 -71 -49 -107.5t-132 -36.5q-94 0 -165 36.5z" />
    <glyph glyph-name="uni0942" unicode="&#x942;" horiz-adv-x="0" 
d="M-293 -239q-43 36 -44 101q0 71 49 107.5t132 36.5q73 0 130 -33t97 -81.5t84 -118.5l-49 -34q-48 73 -80.5 114t-77 68.5t-102.5 27.5q-54 0 -83 -22.5t-29 -63.5q0 -38 23.5 -59.5t66.5 -21.5h60v-57h-64q-70 0 -113 36z" />
    <glyph glyph-name="uni0943" unicode="&#x943;" horiz-adv-x="0" 
d="M-235 -181q-37 28 -37 89q0 56 34.5 86.5t107.5 30.5h28v-56h-26q-36 0 -55.5 -15t-19.5 -46q0 -33 21.5 -47.5t63.5 -14.5q54 0 101 33v-63q-45 -25 -103 -25q-78 0 -115 28z" />
    <glyph glyph-name="uni0944" unicode="&#x944;" horiz-adv-x="0" 
d="M7 -274v-63q-45 -24 -103 -24q-77 0 -113.5 26.5t-36.5 85.5q0 52 34 82q-59 23 -59 90q0 53 31 80t104 27q28 0 53 -5v-56q-22 5 -51 5q-38 0 -53 -13.5t-15 -40.5t19.5 -40.5t73.5 -13.5h46v-49h-16v-5h-25q-73 0 -73 -58q0 -32 20.5 -45.5t62.5 -13.5q57 0 101 31z
" />
    <glyph glyph-name="uni0945" unicode="&#x945;" horiz-adv-x="0" 
d="M-276 750.5q-49 40.5 -49 115.5v11h60v-11q0 -48 32 -73.5t95 -25.5t95 25.5t32 73.5v11h60v-11q0 -75 -49 -115.5t-138 -40.5t-138 40.5z" />
    <glyph glyph-name="uni0946" unicode="&#x946;" horiz-adv-x="600" 
d="M-772 674q0 42 -9.5 65.5t-36 35t-78.5 11.5h-167q-78 0 -121 18t-60.5 55t-17.5 99v18h70v-18q0 -45 8 -68t35.5 -34.5t85.5 -11.5h167q82 0 123.5 -17.5t56 -53.5t14.5 -99v-50h-70v50z" />
    <glyph glyph-name="uni0947" unicode="&#x947;" horiz-adv-x="0" 
d="M-204 765q-11 51 -35.5 69t-77.5 18h-78v58h78q57 0 91 -10.5t56.5 -42t36.5 -92.5l32 -141h-70z" />
    <glyph glyph-name="uni0948" unicode="&#x948;" horiz-adv-x="0" 
d="M-101 624h-70l-60 75q-25 31 -47.5 48.5t-54.5 26t-82 8.5h-88v57h88q64 0 101.5 -9.5t63.5 -31.5t59 -66l-26 118q-11 49 -37 66t-81 17h-78v58h78q57 0 91 -10.5t56.5 -41t35.5 -89.5z" />
    <glyph glyph-name="uni0949" unicode="&#x949;" 
d="M0 0zM291 583h-115v-583h-71v583h-115v58h301v-58zM1 757.5q-49 40.5 -49 115.5v11h60v-11q0 -48 32 -73.5t95 -25.5t95 25.5t32 73.5v11h60v-11q0 -75 -49 -115.5t-138 -40.5t-138 40.5z" />
    <glyph glyph-name="uni094A" unicode="&#x94a;" 
d="M291 583h-115v-583h-71v583h-115v58h115v40q0 42 -9.5 65.5t-36 35t-78.5 11.5h-167q-78 0 -121 18t-60.5 55t-17.5 98v19h71v-19q0 -44 8 -67t35.5 -35t84.5 -12h167q82 0 124 -17.5t56.5 -53t14.5 -98.5v-40h115v-58z" />
    <glyph glyph-name="uni094B" unicode="&#x94b;" 
d="M291 583h-115v-583h-71v583h-115v58h114l-30 131q-12 51 -36.5 69t-77.5 18h-78v57h78q57 0 91 -10.5t56.5 -41.5t36.5 -92l31 -131h116v-58z" />
    <glyph glyph-name="uni094C" unicode="&#x94c;" 
d="M291 583h-115v-583h-71v583h-115v58h108l-52 65q-25 31 -47 48.5t-54 25.5t-83 8h-88v58h88q64 0 101.5 -10t64 -31.5t59.5 -65.5l-27 118q-11 49 -37 66t-81 17h-78v57h78q57 0 91 -10.5t56.5 -40.5t36.5 -89l49 -216h116v-58z" />
    <glyph glyph-name="uni094D" unicode="&#x94d;" horiz-adv-x="0" 
d="M-200 -108l42 48l202 -156l-42 -48z" />
    <glyph glyph-name="uni094E" unicode="&#x94e;" horiz-adv-x="258" 
d="M268 583h-115v-583h-70v641h185v-58z" />
    <glyph glyph-name="uni0950" unicode="&#x950;" horiz-adv-x="934" 
d="M585 695l-63 62l63 62l63 -62zM447 589.5q-49 40.5 -49 115.5v11h60v-11q0 -48 32 -73.5t95 -25.5t95 25.5t32 73.5v11h60v-11q0 -75 -49 -115.5t-138 -40.5t-138 40.5zM832.5 428q42.5 -53 42.5 -171q0 -123 -44 -173t-139 -50h-15q-92 0 -136 46.5t-47 160.5h-139
q2 -18 2 -28q0 -92 -69 -132.5t-175 -40.5h-58v57h58q75 0 124 25t49 94q0 52 -32 77t-102 25h-51v57h52q67 0 100 31t33 81q0 54 -35 75t-108 21h-57v58h57q109 0 161.5 -34.5t52.5 -115.5q0 -50 -22.5 -85t-68.5 -58q45 -15 67 -49h162q7 98 52 140t140 42
q103 0 145.5 -53zM755.5 104.5q24.5 13.5 37 49.5t12.5 103q0 65 -12.5 101t-38 50.5t-67.5 14.5q-45 0 -71 -14t-39 -50t-13 -102q0 -67 13 -103t38.5 -49.5t67.5 -13.5h9q39 0 63.5 13.5z" />
    <glyph glyph-name="uni0951" unicode="&#x951;" horiz-adv-x="0" 
d="M-172 1002h70v-263h-70v263z" />
    <glyph glyph-name="uni0952" unicode="&#x952;" horiz-adv-x="0" 
d="M-385 -200h462v-61h-462v61z" />
    <glyph glyph-name="uni0953" unicode="&#x953;" horiz-adv-x="0" 
d="M-407 991h93l155 -225h-69z" />
    <glyph glyph-name="uni0954" unicode="&#x954;" horiz-adv-x="0" 
d="M-34 991h93l-179 -225h-69z" />
    <glyph glyph-name="uni0956" unicode="&#x956;" horiz-adv-x="0" 
d="M-268.5 -165q-56.5 32 -88.5 84l42 33q71 -91 177 -91t177 91l42 -33q-32 -51 -89 -83.5t-130 -32.5q-74 0 -130.5 32z" />
    <glyph glyph-name="uni0957" unicode="&#x957;" horiz-adv-x="0" 
d="M-268.5 -165q-56.5 32 -88.5 84l42 33q71 -91 177 -91t177 91l42 -33q-32 -51 -89 -83.5t-130 -32.5q-74 0 -130.5 32zM-268.5 -330q-56.5 32 -88.5 84l42 33q71 -91 177 -91t177 91l42 -33q-32 -51 -89 -83.5t-130 -32.5q-74 0 -130.5 32z" />
    <glyph glyph-name="uni0958" unicode="&#x958;" horiz-adv-x="803" 
d="M0 0zM437 583v-174q50 27 119 27h16q98 -1 143.5 -35t45.5 -119q0 -84 -45.5 -119t-142.5 -35h-12q-15 0 -32 1.5t-28 3.5v58q30 -5 58 -5h12q61 0 90 20t29 76q0 41 -13.5 61.5t-39 27.5t-69.5 7h-15q-68 0 -116 -29v-349h-71v155q-52 -27 -119 -27h-16q-98 1 -143.5 35
t-45.5 119q0 84 45.5 119t142.5 35h12q15 0 32 -1.5t28 -3.5v-58q-30 5 -58 5h-12q-61 0 -90 -20t-29 -76q0 -40 13.5 -60.5t39 -27.5t69.5 -8h15q68 0 116 28v369h-376v58h823v-58h-376zM161 -3l63 63l63 -63l-63 -62z" />
    <glyph glyph-name="uni0959" unicode="&#x959;" horiz-adv-x="827" 
d="M0 0zM837 583h-115v-583h-71v183q-40 -15 -92 -15h-18q-157 0 -157 134q0 68 39.5 101t99.5 33h12q25 0 52 -5v-57q-24 4 -47 4h-12q-33 0 -53.5 -16.5t-20.5 -59.5q0 -46 22 -61t71 -15h17q49 0 87 15v342h-314v-188q0 -80 -47 -112t-147 -32h-6v-56q0 -78 33.5 -108
t115.5 -30h165v-57h-165q-106 0 -162.5 41.5t-56.5 153.5v234h70v-120h6q44 0 70 6t40 24.5t14 55.5v188h-277v58h847v-58zM40 -101l63 63l63 -63l-63 -62z" />
    <glyph glyph-name="uni095A" unicode="&#x95a;" horiz-adv-x="600" 
d="M0 0zM610 583h-115v-583h-71v583h-189l1 -288q0 -103 -83 -103q-38 0 -66.5 22.5t-48.5 69.5l55 28q14 -31 26 -47t26 -16q12 0 16 10.5t4 35.5v288h-175v58h620v-58zM137 0l63 63l63 -63l-63 -62z" />
    <glyph glyph-name="uni095B" unicode="&#x95b;" horiz-adv-x="660" 
d="M0 0zM670 641v-58h-115v-583h-71v368h-109v-76q0 -95 -36 -138.5t-128 -43.5q-87 0 -124.5 44.5t-37.5 137.5v134h69v-136q0 -63 20.5 -93t72.5 -30q56 0 75 29t19 94v136h179v157h-494v58h680zM149 -7l63 63l63 -63l-63 -62z" />
    <glyph glyph-name="uni095C" unicode="&#x95c;" horiz-adv-x="500" 
d="M0 0zM153 386q-20 -13 -20 -48q0 -22 7.5 -38t19.5 -24h125q83 0 127.5 -34t44.5 -104t-45 -106.5t-127 -36.5h-13q-75 0 -133 17t-111 50l28 54q50 -32 100.5 -47.5t113.5 -15.5h14q48 0 75 19.5t27 59.5q0 47 -25 67t-76 20h-160q-22 17 -42.5 50t-20.5 72
q0 62 37.5 89t115.5 27h107v126h-332v58h520v-58h-117v-166h-6v-18h-172q-42 0 -62 -13zM207 -107l63 63l63 -63l-63 -62z" />
    <glyph glyph-name="uni095D" unicode="&#x95d;" horiz-adv-x="512" 
d="M0 0zM187.5 394q-30.5 -13 -47 -48t-16.5 -100q0 -66 15 -101t43 -47.5t75 -12.5h19q66 0 97 20.5t32 70.5v31q0 24 -10.5 34.5t-34.5 10.5t-35 -10.5t-11 -34.5v-45h-67v48q0 49 27 73.5t88 24.5q59 0 86 -26t27 -75v-31q0 -76 -49 -112.5t-150 -36.5h-19
q-105 0 -154 49.5t-49 169.5q0 119 52 169t161 50h70v118h-347v58h532v-58h-115v-176h-140q-49 0 -79.5 -13zM205 -87l63 63l63 -63l-63 -62z" />
    <glyph glyph-name="uni095E" unicode="&#x95e;" horiz-adv-x="806" 
d="M0 0zM440 583v-174q52 27 120 27h15q98 -1 143.5 -35t45.5 -119q0 -84 -45.5 -119t-141.5 -35h-12q-15 0 -32 1.5t-28 3.5v58q28 -5 58 -5h12q60 0 89 20t29 76q0 41 -13.5 61.5t-39 27.5t-68.5 7h-16q-68 0 -116 -29v-349h-71v239q-51 -32 -114 -32q-86 0 -128 39
t-42 136v201h-95v58h826v-58h-376zM369 301v282h-213v-201q0 -65 23 -91t81 -26q64 0 109 36zM72 93l63 63l63 -63l-63 -62z" />
    <glyph glyph-name="uni095F" unicode="&#x95f;" horiz-adv-x="588" 
d="M0 0zM598 641v-58h-115v-583h-70v200q-33 -17 -69 -25t-64 -8q-58 0 -97.5 13.5t-69.5 47t-55 94.5q76 30 105 61.5t29 78.5q0 59 -37 121h-165v58h608zM413 265v318h-189q18 -32 28 -65.5t10 -57.5q0 -56 -28 -95.5t-91 -71.5q22 -40 56 -54.5t81 -14.5q65 0 133 41z
M67 60l63 63l63 -63l-63 -62z" />
    <glyph glyph-name="uni0960" unicode="&#x960;" horiz-adv-x="810" 
d="M855 -112v-62q-45 -24 -106 -24q-77 0 -114 27t-37 85q0 53 34 80q-32 13 -45.5 36t-13.5 54q0 41 17.5 65.5t58.5 33.5l-55 107h-146v-290h-70v236l-273 -239l-42 48l313 273q-47 45 -85.5 63t-84.5 18q-41 0 -148 -28v65q59 14 92 20.5t58 6.5q49 0 87 -17t83 -58v195
h-388v58h829v-58h-371v-235h129v129h70v-151l70 -136q34 -2 48 -5v-56q-23 5 -54 5q-37 0 -52.5 -13.5t-15.5 -39.5t19 -39t71 -13h52v-50h-17v-6h-30q-70 0 -70 -57q0 -31 21 -44.5t62 -13.5q58 0 104 30z" />
    <glyph glyph-name="uni0961" unicode="&#x961;" horiz-adv-x="772" 
d="M577 583v-155q63 -9 96.5 -47t33.5 -91q0 -38 -14 -69.5t-32.5 -54.5t-50.5 -56q-33 -34 -47.5 -54t-14.5 -41q0 -28 20 -44t64 -16q22 0 56 9v-60q-28 -6 -56 -6q-21 0 -31 2q-28 -22 -28 -60q0 -31 20.5 -44.5t61.5 -13.5q29 0 53 7t48 23v-62q-47 -24 -106 -24
q-75 0 -111 27t-36 84q0 53 33 82q-29 15 -44 39.5t-15 52.5q0 36 19.5 65t57.5 67q40 40 61 72t21 73q0 42 -25 63.5t-70 21.5q-55 0 -83 -36t-30 -103v-36h-71v36q-1 66 -29 102.5t-82 36.5q-55 0 -83.5 -36.5t-29.5 -102.5q2 -79 41 -128t141 -49h19v-57h-19
q-135 0 -194 67.5t-59 166.5q0 89 46.5 142.5t133.5 53.5q106 0 151 -78q37 64 114 75v156h-517v58h792v-58h-205z" />
    <glyph glyph-name="uni0962" unicode="&#x962;" horiz-adv-x="0" 
d="M-36 -391.5q21 8.5 38 19.5v-57q-35 -24 -85 -24q-52 0 -81 24.5t-29 60.5q0 24 12.5 43t38.5 46q27 28 41 49t14 48q0 51 -58 51q-35 0 -53 -23t-18 -63v-33h-58v33q-1 41 -18.5 63.5t-51.5 22.5t-52 -23t-19 -65q2 -52 28 -84t95 -32h8v-54h-8q-99 0 -142.5 49.5
t-43.5 121.5q0 66 33 104.5t97 38.5q70 0 103 -49q25 36 69 46v148h71v-149q39 -9 60 -36.5t21 -63.5q0 -37 -17.5 -65.5t-47.5 -59.5q-20 -20 -29.5 -34t-9.5 -28q0 -34 51 -34q20 0 41 8.5z" />
    <glyph glyph-name="uni0963" unicode="&#x963;" horiz-adv-x="0" 
d="M8 -501v-58q-29 -17 -74 -17q-108 0 -108 83q0 35 20 58q-20 12 -30 30t-10 37q0 24 12.5 42.5t39.5 46.5t41 49t14 48q0 25 -15.5 37.5t-43.5 12.5q-34 0 -52 -22.5t-18 -62.5v-28h-5v-5h-53v33q-1 41 -18.5 63.5t-51.5 22.5t-52 -23t-19 -65q2 -52 28 -84t95 -32h8v-54
h-8q-99 0 -142.5 49.5t-43.5 121.5q0 66 33 104.5t97 38.5q70 0 103 -49q25 36 69 46v148h71v-149q38 -9 59.5 -36.5t21.5 -63.5q0 -37 -17 -64.5t-48 -60.5q-20 -20 -30 -34t-10 -28q0 -34 51 -34q21 0 43 10v-56q-16 -7 -41 -7q-14 0 -20 1q-14 -16 -14 -37
q0 -18 12.5 -26t37.5 -8q37 0 68 22z" />
    <glyph glyph-name="uni0964" unicode="&#x964;" horiz-adv-x="456" 
d="M278 634h70v-634h-70v634z" />
    <glyph glyph-name="uni0965" unicode="&#x965;" horiz-adv-x="710" 
d="M278 0zM278 634h70v-634h-70v634zM538 634h70v-634h-70v634z" />
    <glyph glyph-name="uni0966" unicode="&#x966;" horiz-adv-x="638" 
d="M197.5 147.5q-51.5 28.5 -79 78t-27.5 109.5t27.5 109.5t79 78t121.5 28.5t121.5 -28.5t79 -78t27.5 -109.5t-27.5 -109.5t-79 -78t-121.5 -28.5t-121.5 28.5zM434.5 221.5q41.5 45.5 41.5 113.5t-41.5 113.5t-115.5 45.5t-115.5 -45.5t-41.5 -113.5t41.5 -113.5
t115.5 -45.5t115.5 45.5z" />
    <glyph glyph-name="uni0967" unicode="&#x967;" horiz-adv-x="480" 
d="M399.5 352.5q-29.5 -53.5 -79.5 -90t-112 -51.5l162 -188l-46 -40l-187 218q-4 -1 -12 -1h-60v58h60q62 0 115 25.5t85.5 73.5t32.5 113q0 72 -23 100t-82 28q-53 0 -79 -29.5t-27 -98.5v-38h-71v38q1 92 43.5 138.5t133.5 46.5q93 0 134.5 -46t41.5 -139
q0 -64 -29.5 -117.5z" />
    <glyph glyph-name="uni0968" unicode="&#x968;" horiz-adv-x="494" 
d="M457 57v-57h-60q-253 0 -253 265v20h-56v58h85q82 0 121.5 25.5t40.5 94.5q-1 69 -40.5 94.5t-121.5 25.5h-85v58h85q119 0 175 -41t57 -137q-1 -87 -47.5 -128.5t-143.5 -47.5v-22q1 -119 50 -163.5t133 -44.5h60z" />
    <glyph glyph-name="uni0969" unicode="&#x969;" horiz-adv-x="484" 
d="M406 298q36 -40 36 -96q0 -88 -55 -131.5t-146 -43.5q-54 0 -98 13v-81h-69v235h69v-93q44 -17 98 -17q59 0 95.5 27.5t36.5 91.5q0 57 -49 86t-145 29h-49v57h50q67 0 100 31.5t33 81.5q0 54 -34.5 74.5t-106.5 20.5h-87v58h87q107 0 158.5 -35t51.5 -115
q0 -92 -78 -135q66 -18 102 -58z" />
    <glyph glyph-name="uni096A" unicode="&#x96a;" horiz-adv-x="574" 
d="M490 479.5q-15 -42.5 -40.5 -68t-72.5 -55.5l-37 -25q58 -38 89 -79t31 -105q0 -72 -47.5 -118t-125.5 -46t-125.5 46t-47.5 118q0 59 32.5 102t88.5 82l-38 25q-47 30 -73.5 57.5t-40.5 70t-14 108.5v49h70v-49q0 -63 10 -96.5t32.5 -55t74.5 -54.5l31 -21l31 21
q49 31 72 53.5t34 57t11 95.5v49h70v-49q0 -70 -15 -112.5zM364.5 229.5q-25.5 32.5 -76.5 67.5q-50 -35 -77 -69t-27 -81q0 -53 28.5 -79.5t74.5 -26.5t74.5 26.5t28.5 79.5q0 50 -25.5 82.5z" />
    <glyph glyph-name="uni096B" unicode="&#x96b;" horiz-adv-x="572" 
d="M470 522v-366q0 -87 -54.5 -130t-146.5 -43q-77 0 -136 26l-15 71q34 -19 68.5 -29.5t79.5 -10.5q60 0 97 28t37 93v119q-29 -19 -58.5 -29t-66.5 -10q-88 0 -130.5 39t-42.5 136v225h70v-225q0 -65 23.5 -91t81.5 -26q41 0 69 12t54 33v177z" />
    <glyph glyph-name="uni096C" unicode="&#x96c;" horiz-adv-x="507" 
d="M455 229v-239h-70v97q-43 -12 -87 -12h-18q-95 1 -143.5 43t-48.5 120q0 97 68 138q-49 14 -73 46t-24 87q0 79 51 112t161 33h18q43 0 75 -8v-60q-33 10 -75 10h-18q-75 0 -108.5 -18.5t-33.5 -72.5q0 -39 18 -59t51 -26.5t89 -6.5h22v-7h17v-51h-46q-59 0 -90.5 -29
t-31.5 -87q0 -104 122 -106h18q49 0 87 14v82h70z" />
    <glyph glyph-name="uni096D" unicode="&#x96d;" horiz-adv-x="590" 
d="M177 48q-45 23 -67.5 80.5t-22.5 159.5v353h71v-352q0 -86 15 -130.5t44 -60.5t78 -16q48 0 77 16t44.5 61t15.5 130v272q0 20 -6.5 28.5t-24.5 8.5t-25 -8.5t-7 -28.5v-103h-71v105q0 44 24 67.5t79 23.5q54 0 78 -23.5t24 -67.5v-275q0 -101 -23.5 -159t-69 -81
t-115.5 -23q-73 0 -118 23z" />
    <glyph glyph-name="uni096E" unicode="&#x96e;" horiz-adv-x="471" 
d="M117.5 62.5q-78.5 62.5 -78.5 168.5q0 57 22.5 105.5t62.5 93t105 101.5l152 132l45 -51l-152 -132q-59 -51 -93 -87.5t-53 -76t-19 -85.5q0 -83 60.5 -128.5t185.5 -45.5h57v-57h-57q-159 0 -237.5 62.5z" />
    <glyph glyph-name="uni096F" unicode="&#x96f;" horiz-adv-x="521" 
d="M296 134l-24 21q-78 70 -123 116t-76.5 100t-31.5 110q0 87 52 130t147 43q80 0 124 -43t44 -130v-63h-71v63q0 62 -26 88.5t-73 26.5q-60 0 -93 -26.5t-33 -88.5q0 -45 23.5 -86t60 -77.5t104.5 -96.5q28 -24 42 -37l155 -139l-46 -50z" />
    <glyph glyph-name="uni0970" unicode="&#x970;" horiz-adv-x="461" 
d="M149.5 137.5q-37.5 20.5 -59 57t-21.5 82.5t21.5 82.5t59 56.5t81.5 20t81 -20t58.5 -56.5t21.5 -82.5t-21.5 -82.5t-58.5 -57t-81 -20.5t-81.5 20.5zM298 203q26 30 26 74t-26 73.5t-67 29.5t-67.5 -29.5t-26.5 -73.5t26.5 -74t67.5 -30t67 30z" />
    <glyph glyph-name="uni0971" unicode="&#x971;" horiz-adv-x="274" 
d="M74 612l63 63l63 -63l-63 -62z" />
    <glyph glyph-name="uni0972" unicode="&#x972;" horiz-adv-x="719" 
d="M55 0zM729 641v-58h-115v-583h-71v241h-188q2 -18 2 -28q0 -92 -69 -132.5t-175 -40.5h-58v57h58q75 0 124 25t49 94q0 52 -32 77t-102 25h-51v57h52q67 0 100 31t33 81q0 54 -35 75t-108 21h-57v58h57q109 0 161.5 -34.5t52.5 -115.5q0 -50 -22.5 -85t-68.5 -58
q45 -15 67 -49h210v284h-126v58h312zM439 757.5q-49 40.5 -49 115.5v11h60v-11q0 -48 32 -73.5t95 -25.5t95 25.5t32 73.5v11h60v-11q0 -75 -49 -115.5t-138 -40.5t-138 40.5z" />
    <glyph glyph-name="uni0973" unicode="&#x973;" horiz-adv-x="719" 
d="M729 641v-58h-115v-583h-71v241h-188q2 -18 2 -28q0 -92 -69 -132.5t-175 -40.5h-58v57h58q75 0 124 25t49 94q0 52 -32 77t-102 25h-51v57h52q67 0 100 31t33 81q0 54 -35 75t-108 21h-57v58h57q109 0 161.5 -34.5t52.5 -115.5q0 -50 -22.5 -85t-68.5 -58q45 -15 67 -49
h210v284h-126v58h126v262h70v-262h116z" />
    <glyph glyph-name="uni0974" unicode="&#x974;" horiz-adv-x="999" 
d="M1009 583h-115v-583h-70v583h-115h-95v-583h-71v241h-188q2 -18 2 -28q0 -92 -69 -132.5t-175 -40.5h-58v57h58q75 0 124 25t49 94q0 52 -32 77t-102 25h-51v57h52q67 0 100 31t33 81q0 54 -35 75t-108 21h-57v58h57q109 0 161.5 -34.5t52.5 -115.5q0 -50 -22.5 -85
t-68.5 -58q45 -15 67 -49h210v284h-126v58h292h115v262h70v-262h115v-58z" />
    <glyph glyph-name="uni0976" unicode="&#x976;" horiz-adv-x="719" 
d="M55 0zM729 641v-58h-115v-583h-71v241h-188q2 -18 2 -28q0 -92 -69 -132.5t-175 -40.5h-58v57h58q75 0 124 25t49 94q0 52 -32 77t-102 25h-51v57h52q67 0 100 31t33 81q0 54 -35 75t-108 21h-57v58h57q109 0 161.5 -34.5t52.5 -115.5q0 -50 -22.5 -85t-68.5 -58
q45 -15 67 -49h210v284h-126v58h312zM263.5 -165q-56.5 32 -88.5 84l42 33q71 -91 177 -91t177 91l42 -33q-32 -51 -89 -83.5t-130 -32.5q-74 0 -130.5 32z" />
    <glyph glyph-name="uni0977" unicode="&#x977;" horiz-adv-x="719" 
d="M55 0zM729 641v-58h-115v-583h-71v241h-188q2 -18 2 -28q0 -92 -69 -132.5t-175 -40.5h-58v57h58q75 0 124 25t49 94q0 52 -32 77t-102 25h-51v57h52q67 0 100 31t33 81q0 54 -35 75t-108 21h-57v58h57q109 0 161.5 -34.5t52.5 -115.5q0 -50 -22.5 -85t-68.5 -58
q45 -15 67 -49h210v284h-126v58h312zM263.5 -165q-56.5 32 -88.5 84l42 33q71 -91 177 -91t177 91l42 -33q-32 -51 -89 -83.5t-130 -32.5q-74 0 -130.5 32zM263.5 -330q-56.5 32 -88.5 84l42 33q71 -91 177 -91t177 91l42 -33q-32 -51 -89 -83.5t-130 -32.5q-74 0 -130.5 32
z" />
    <glyph glyph-name="uni0979" unicode="&#x979;" horiz-adv-x="660" 
d="M0 0zM670 641v-58h-115v-583h-71v368h-109v-76q0 -95 -36 -138.5t-128 -43.5q-87 0 -124.5 44.5t-37.5 137.5v134h69v-136q0 -63 20.5 -93t72.5 -30q56 0 75 29t19 94v136h179v157h-494v58h680zM48 8l63 63l63 -63l-63 -62zM149 -91l63 63l63 -63l-63 -62zM251 8l63 63
l63 -63l-63 -62z" />
    <glyph glyph-name="uni097A" unicode="&#x97a;" horiz-adv-x="580" 
d="M598 641v-58h-115v-583h-70v200q-33 -17 -69 -25t-64 -8q-58 0 -97.5 13.5t-69.5 47t-55 94.5q76 30 105 61.5t29 78.5q0 59 -37 121h-165v58h608zM413 583h-183l183 -243v243zM199 238.5q34 -14.5 81 -14.5q64 0 129 38l-147 195q0 -54 -28 -93t-91 -71q22 -40 56 -54.5
z" />
    <glyph glyph-name="uni097B" unicode="&#x97b;" horiz-adv-x="600" 
d="M610 583h-115v-583h-17v-13h-428v57h374v539h-189l1 -288q0 -103 -83 -103q-38 0 -66.5 22.5t-48.5 69.5l55 28q14 -31 26 -47t26 -16q12 0 16 10.5t4 35.5v288h-175v58h620v-58z" />
    <glyph glyph-name="uni097C" unicode="&#x97c;" horiz-adv-x="627" 
d="M670 641v-58h-115v-583h-22v-13h-483v57h434v324h-109v-76q0 -95 -36 -138.5t-128 -43.5q-87 0 -124.5 44.5t-37.5 137.5v134h69v-136q0 -63 20.5 -93t72.5 -30q56 0 75 29t19 94v136h179v157h-494v58h680z" />
    <glyph glyph-name="uni097D" unicode="&#x97d;" horiz-adv-x="453" 
d="M355 323q-50 -45 -156 -48v-275h-70v332h54q79 0 115.5 29.5t36.5 96.5q0 66 -41 95.5t-121 29.5h-85v58h85q116 0 174 -45t58 -138q0 -90 -50 -135z" />
    <glyph glyph-name="uni097E" unicode="&#x97e;" horiz-adv-x="500" 
d="M153 386q-20 -13 -20 -48q0 -22 7.5 -38t19.5 -24h125q83 0 127.5 -34t44.5 -104t-45 -106.5t-127 -36.5h-13q-75 0 -133 17t-111 50l28 54q50 -32 100.5 -47.5t113.5 -15.5h14q48 0 75 19.5t27 59.5q0 47 -25 67t-76 20h-160q-22 17 -42.5 50t-20.5 72q0 62 37.5 89
t115.5 27h107v126h-332v58h520v-58h-117v-166h-6v-18h-172q-42 0 -62 -13zM50 -76h400v-57h-400v57z" />
    <glyph glyph-name="uni097F" unicode="&#x97f;" horiz-adv-x="542" 
d="M552 641v-58h-115v-583h-21v-21h-366v58h316v118q-52 -27 -119 -27h-16q-98 1 -143.5 35t-45.5 119q0 84 45.5 119t142.5 35h12q15 0 32 -1.5t28 -3.5v-58q-30 5 -58 5h-12q-28 0 -49 -3l153 -175q10 4 30 14v369h-376v58h562zM250 186q25 0 37 2l-148 168
q-26 -21 -26 -74q0 -40 13.5 -60.5t39 -27.5t69.5 -8h15z" />
    <glyph glyph-name="Wgrave" unicode="&#x1e80;" horiz-adv-x="1073" 
d="M38 0zM1036 758l-227 -767h-78l-194 647l-194 -647h-78l-227 767h79l187 -652l190 652h85l191 -653l186 653h80zM392 989h89l107 -153h-75z" />
    <glyph glyph-name="wgrave" unicode="&#x1e81;" horiz-adv-x="837" 
d="M22 0zM815 549l-176 -558h-75l-145 446l-145 -446h-75l-177 558h78l136 -453l141 453h83l141 -453l136 453h78zM264 809h90l106 -153h-75z" />
    <glyph glyph-name="Wacute" unicode="&#x1e82;" horiz-adv-x="1073" 
d="M38 0zM1036 758l-227 -767h-78l-194 647l-194 -647h-78l-227 767h79l187 -652l190 652h85l191 -653l186 653h80zM602 989h90l-121 -153h-75z" />
    <glyph glyph-name="wacute" unicode="&#x1e83;" horiz-adv-x="837" 
d="M22 0zM815 549l-176 -558h-75l-145 446l-145 -446h-75l-177 558h78l136 -453l141 453h83l141 -453l136 453h78zM483 809h90l-121 -153h-75z" />
    <glyph glyph-name="Wdieresis" unicode="&#x1e84;" horiz-adv-x="1073" 
d="M38 0zM1036 758l-227 -767h-78l-194 647l-194 -647h-78l-227 767h79l187 -652l190 652h85l191 -653l186 653h80zM601 971h71v-117h-71v117zM402 971h70v-117h-70v117z" />
    <glyph glyph-name="wdieresis" unicode="&#x1e85;" horiz-adv-x="837" 
d="M22 0zM815 549l-176 -558h-75l-145 446l-145 -446h-75l-177 558h78l136 -453l141 453h83l141 -453l136 453h78zM482 791h71v-117h-71v117zM283 791h70v-117h-70v117z" />
    <glyph glyph-name="Ygrave" unicode="&#x1ef2;" horiz-adv-x="708" 
d="M33 0zM392 293v-293h-76v293l-283 465h80l241 -400l242 400h80zM209 989h89l107 -153h-75z" />
    <glyph glyph-name="ygrave" unicode="&#x1ef3;" horiz-adv-x="545" 
d="M20 0zM525 549l-250 -638q-28 -71 -46 -103t-44 -45.5t-74 -13.5q-25 0 -50 6v69q21 -4 49 -4q23 0 37.5 9t26.5 30.5t30 66.5l30 77l-214 546h78l174 -449l177 449h76zM119 809h90l106 -153h-75z" />
    <glyph glyph-name="uni200D" unicode="&#x200d;" horiz-adv-x="0" 
 />
    <glyph glyph-name="endash" unicode="&#x2013;" horiz-adv-x="500" 
d="M0 331h500v-70h-500v70z" />
    <glyph glyph-name="emdash" unicode="&#x2014;" horiz-adv-x="1000" 
d="M125 331h750v-70h-750v70z" />
    <glyph glyph-name="quoteleft" unicode="&#x2018;" horiz-adv-x="284" 
d="M77 451zM137 451h80l-69 307h-71z" />
    <glyph glyph-name="quoteright" unicode="&#x2019;" horiz-adv-x="284" 
d="M67 451zM127 758h80l-69 -307h-71z" />
    <glyph glyph-name="quotesinglbase" unicode="&#x201a;" horiz-adv-x="284" 
d="M67 0zM127 156h80l-69 -307h-71z" />
    <glyph glyph-name="quotedblleft" unicode="&#x201c;" horiz-adv-x="457" 
d="M148 758l69 -307h-80l-60 307h71zM390 451h-80l-60 307h71z" />
    <glyph glyph-name="quotedblright" unicode="&#x201d;" horiz-adv-x="457" 
d="M67 451zM127 758h80l-69 -307h-71zM300 758h80l-69 -307h-71z" />
    <glyph glyph-name="quotedblbase" unicode="&#x201e;" horiz-adv-x="457" 
d="M127 156h80l-69 -307h-71zM380 156l-69 -307h-71l60 307h80z" />
    <glyph glyph-name="dagger" unicode="&#x2020;" horiz-adv-x="464" 
d="M422 551h-152v-504h-76v504h-152v72h152v182h76v-182h152v-72z" />
    <glyph glyph-name="daggerdbl" unicode="&#x2021;" horiz-adv-x="464" 
d="M270 551v-228h152v-72h-152v-430h-76v430h-152v72h152v228h-152v72h152v182h76v-182h152v-72h-152z" />
    <glyph glyph-name="bullet" unicode="&#x2022;" horiz-adv-x="347" 
d="M90.5 297.5q-34.5 34.5 -34.5 83.5t34.5 83t83.5 34q50 0 83.5 -33.5t33.5 -83.5q0 -49 -34 -83.5t-83 -34.5t-83.5 34.5z" />
    <glyph glyph-name="ellipsis" unicode="&#x2026;" horiz-adv-x="852" 
d="M100 156h84v-156h-84v156zM384 156h84v-156h-84v156zM752 156v-156h-84v156h84z" />
    <glyph glyph-name="perthousand" unicode="&#x2030;" horiz-adv-x="1470" 
d="M689 773h72l-417 -806h-72zM138 332q-45 26 -70.5 71t-25.5 98t25.5 98t70.5 71t99 26q55 0 99.5 -26t70 -71t25.5 -98t-25.5 -98t-70 -71t-99.5 -26q-54 0 -99 26zM327.5 406.5q34.5 38.5 34.5 94.5t-34.5 94t-90.5 38q-55 0 -90.5 -38t-35.5 -94t35.5 -94.5t90.5 -38.5
q56 0 90.5 38.5zM681 9q-45 26 -70.5 71t-25.5 98t25.5 98t70.5 71t99 26q55 0 99.5 -26t70 -71t25.5 -98t-25.5 -98t-70 -71t-99.5 -26q-54 0 -99 26zM1135 9q-45 26 -71 71t-26 98t26 98t71 71t99 26t98.5 -26t70 -71t25.5 -98t-25.5 -98t-70 -71t-98.5 -26t-99 26z
M870.5 83.5q34.5 38.5 34.5 94.5q0 57 -34.5 94.5t-90.5 37.5q-55 0 -90.5 -38t-35.5 -94t35.5 -94.5t90.5 -38.5q56 0 90.5 38.5zM1324 83.5q35 38.5 35 94.5t-35 94t-90 38q-56 0 -91 -37.5t-35 -94.5q0 -56 35 -94.5t91 -38.5q55 0 90 38.5z" />
    <glyph glyph-name="guilsinglleft" unicode="&#x2039;" horiz-adv-x="490" 
d="M185 270l186 -188l-50 -48l-206 208v56l206 208l50 -48z" />
    <glyph glyph-name="guilsinglright" unicode="&#x203a;" horiz-adv-x="490" 
d="M119 34zM305 270l-186 -188l50 -48l206 208v56l-206 208l-50 -48z" />
    <glyph glyph-name="fraction" unicode="&#x2044;" horiz-adv-x="395" 
d="M370 773h72l-417 -806h-72z" />
    <glyph glyph-name="Euro" unicode="&#x20ac;" horiz-adv-x="550" 
d="M482 36q-40 -29 -76.5 -41t-84.5 -12q-179 0 -209 243h-62l24 66h33q-1 14 -1 44t1 45h-58l25 65h38q32 242 212 242q76 0 136 -42l-27 -63q-23 15 -51 25.5t-56 10.5q-111 0 -136 -173h210l-24 -65h-191q-1 -15 -1 -45t1 -44h158l-25 -66h-128q25 -174 136 -174
q36 0 63.5 11t63.5 36z" />
    <glyph glyph-name="uni20B9" unicode="&#x20b9;" horiz-adv-x="550" 
d="M368 583v-94h116v-57h-116v-44q0 -80 -48 -112t-151 -33v-48q0 -55 15 -86t47 -44.5t87 -13.5h108v-58h-108q-106 0 -162.5 43t-56.5 159v157h70v-52q46 1 72.5 7.5t41 25t14.5 55.5v44h-230v57h230v94h-230v58h417v-58h-116z" />
    <glyph glyph-name="trademark" unicode="&#x2122;" horiz-adv-x="1140" 
d="M422 691h-155v-475h-71v475h-156v67h382v-67zM1027 758v-542h-71v426l-166 -227h-33l-165 226v-425h-71v542h62l191 -262l191 262h62z" />
    <glyph glyph-name="partialdiff" unicode="&#x2202;" horiz-adv-x="617" 
d="M479 564.5q78 -129.5 78 -277.5q0 -138 -64.5 -221t-185.5 -83q-73 0 -129.5 35t-87.5 94.5t-31 131.5q0 80 32.5 139t87.5 90.5t120 31.5q89 0 155 -62q-31 85 -92 156.5t-148 119.5l49 53q138 -78 216 -207.5zM477 347q-32 42 -75.5 65t-95.5 23q-43 0 -82.5 -21.5
t-64 -64.5t-24.5 -105q0 -56 22.5 -99.5t62 -67t87.5 -23.5q81 0 127 59.5t47 171.5q0 34 -4 62z" />
    <glyph glyph-name="uni2206" unicode="&#x2206;" horiz-adv-x="711" 
d="M685 0h-659l290 767h78zM578 71l-223 590l-223 -590h446z" />
    <glyph glyph-name="product" unicode="&#x220f;" horiz-adv-x="782" 
d="M669 -237h-77v924h-402v-924h-77v995h556v-995z" />
    <glyph glyph-name="summation" unicode="&#x2211;" horiz-adv-x="681" 
d="M621 -166v-71h-541v69l300 429l-300 428v69h537v-71h-441l285 -408v-37l-285 -408h445z" />
    <glyph glyph-name="minus" unicode="&#x2212;" horiz-adv-x="550" 
d="M67 372h416v-70h-416v70z" />
    <glyph glyph-name="radical" unicode="&#x221a;" horiz-adv-x="700" 
d="M754 938l-338 -1111h-64l-184 453l-74 -54l-37 59l142 105l183 -451l298 999h74z" />
    <glyph glyph-name="infinity" unicode="&#x221e;" horiz-adv-x="550" 
d="M487.5 447q39.5 -43 39.5 -111q0 -69 -39.5 -112t-104.5 -43q-40 0 -70.5 20t-47.5 55q-17 -28 -44.5 -44t-61.5 -16q-59 0 -97.5 39.5t-38.5 100.5t38.5 100.5t97.5 39.5q34 0 61.5 -16t44.5 -44q18 34 48.5 54t69.5 20q65 0 104.5 -43zM440 268.5q22 25.5 22 67.5
t-22 67t-59 25q-38 0 -60 -25t-22 -67t22 -67.5t60 -25.5q37 0 59 25.5zM214 278.5q20 20.5 20 57.5t-20 57.5t-53 20.5t-53 -20.5t-20 -57.5t20 -57.5t53 -20.5t53 20.5z" />
    <glyph glyph-name="integral" unicode="&#x222b;" horiz-adv-x="550" 
d="M422 853v-69q-20 4 -48 4q-36 0 -49 -14.5t-13 -55.5v-810q0 -62 -12 -96t-40.5 -48.5t-79.5 -14.5q-23 0 -52 6v69q20 -4 48 -4q25 0 38 8.5t18.5 30t5.5 65.5v809q0 70 30 98t102 28q24 0 52 -6z" />
    <glyph glyph-name="approxequal" unicode="&#x2248;" horiz-adv-x="550" 
d="M306 370.5q-20 9.5 -44 27.5q-21 16 -35.5 23t-31.5 7q-28 0 -49.5 -14.5t-53.5 -42.5l-34 46q37 37 68.5 58t67.5 21q28 0 48.5 -10t44.5 -29q19 -15 33 -22t30 -7q30 0 52.5 14.5t53.5 43.5l34 -46q-39 -39 -69 -59t-69 -20q-26 0 -46 9.5zM308 170.5q-19 9.5 -45 27.5
q-20 15 -34.5 22.5t-31.5 7.5q-28 0 -50.5 -14.5t-52.5 -42.5l-35 46q36 37 68 58t69 21q28 0 48.5 -10t44.5 -29q19 -15 33 -22t30 -7q30 0 52.5 14.5t53.5 43.5l34 -46q-39 -39 -69.5 -59t-69.5 -20q-26 0 -45 9.5z" />
    <glyph glyph-name="notequal" unicode="&#x2260;" horiz-adv-x="600" 
d="M340 402l-37 -130h180v-70h-200l-32 -112h-76l32 112h-140v70h160l37 130h-197v70h217l28 102h76l-28 -102h123v-70h-143z" />
    <glyph glyph-name="lessequal" unicode="&#x2264;" horiz-adv-x="550" 
d="M156 331l329 -161l-12 -68l-406 201v55l406 203l12 -68zM67 71h416v-71h-416v71z" />
    <glyph glyph-name="greaterequal" unicode="&#x2265;" horiz-adv-x="550" 
d="M65 0zM394 331l-329 -161l12 -68l406 201v55l-406 203l-12 -68zM483 71h-416v-71h416v71z" />
    <glyph glyph-name="lozenge" unicode="&#x25ca;" horiz-adv-x="550" 
d="M505 337l-200 -337h-58l-201 337l201 337h58zM424 337l-148 252l-148 -252l148 -252z" />
    <glyph glyph-name="uni25CC" unicode="&#x25cc;" horiz-adv-x="770" 
d="M357 546q-12 12 -12 29q0 16 12 28.5t29 12.5q16 0 28.5 -12.5t12.5 -28.5q0 -17 -12.5 -29t-28.5 -12q-17 0 -29 12zM230 514q-12 12 -12 29t12 29t28 12q17 0 29 -12t12 -29q0 -16 -12 -28.5t-29 -12.5q-16 0 -28 12zM481.5 514.5q-12.5 12.5 -12.5 28.5q0 17 12.5 29
t28.5 12q17 0 29 -12t12 -29t-12 -29t-29 -12q-16 0 -28.5 12.5zM136 421q-12 12 -12 29t12 29t29 12t29 -12t12 -29t-12 -29t-29 -12t-29 12zM576 421q-12 12 -12 29t12.5 29t28.5 12q17 0 29 -12t12 -29t-12 -29t-29 -12t-29 12zM105 294q-12 12 -12 29t12 29t29 12
t29 -12t12 -29q0 -16 -12 -28.5t-29 -12.5t-29 12zM608 294.5q-12 12.5 -12 28.5q0 17 12 29t28 12q17 0 29 -12t12 -29t-12 -29t-29 -12q-16 0 -28 12.5zM136 168q-12 12 -12 29t12 28.5t29 11.5t29 -12t12 -28t-12 -28.5t-29 -12.5t-29 12zM576.5 168.5
q-12.5 12.5 -12.5 28.5t12 28t29 12t29 -11.5t12 -28.5t-12 -29t-29 -12q-16 0 -28.5 12.5zM230 73q-12 12 -12 29t12 28.5t28 11.5q17 0 29 -12t12 -28t-12 -28.5t-29 -12.5q-16 0 -28 12zM481.5 73.5q-12.5 12.5 -12.5 28.5t12 28t29 12t29 -11.5t12 -28.5t-12 -29
t-29 -12q-16 0 -28.5 12.5zM357 42q-12 12 -12 29t12 29t29 12q16 0 28.5 -12t12.5 -29q0 -16 -12.5 -28.5t-28.5 -12.5q-17 0 -29 12z" />
    <glyph glyph-name="i.loclTRK" horiz-adv-x="264" 
d="M95 0zM95 549h74v-549h-74v549zM95 791h74v-117h-74v117z" />
    <glyph glyph-name="uni09080902" horiz-adv-x="510" 
d="M367 720q10 -36 29 -79h124v-58h-127v-164h-173q-41 0 -61 -13.5t-20 -48.5q0 -22 7.5 -38t19.5 -24h124q84 0 128.5 -34t44.5 -104t-45 -106t-127 -36h-13q-80 0 -141 28v-101h-67v232h67v-69q63 -33 138 -33h15q48 0 75 19.5t27 59.5q0 47 -25 67t-77 20h-159
q-23 16 -43 49.5t-20 72.5q0 62 37 89t115 27h102v107h-332v58h336q-40 85 -40 154q0 82 46.5 116t109.5 34q42 0 71 -11v-60q-30 14 -66 14q-90 0 -90 -96q0 -36 10 -72zM460 825l63 -62l-63 -62l-63 62z" />
    <glyph glyph-name="uni093F0902" 
d="M0 0zM590.5 907.5q63.5 -22.5 94.5 -73.5t32 -139v-87h-70v87q0 77 -26 115.5t-72.5 50t-125.5 11.5h-23q-79 0 -125 -11.5t-72 -50t-26 -115.5v-54h115v-58h-115v-583h-71v583h-116v58h116v54q0 88 31 139t95 73.5t168 22.5h23q104 0 167.5 -22.5zM755 742l63 62l63 -62
l-63 -62z" />
    <glyph glyph-name="uni093F0930094D" 
d="M867 918v-60q-32 15 -65 15q-85 0 -85 -90v-161h-9v-14h-62v87q0 77 -26 115.5t-72.5 50t-125.5 11.5h-22q-79 0 -125 -11.5t-72 -50t-26 -115.5v-54h115v-58h-115v-583h-71v583h-116v58h116v54q0 88 31 139t95 73.5t168 22.5h22q95 0 155 -19.5t92 -64.5q15 47 51 65.5
t80 18.5q41 0 67 -12z" />
    <glyph glyph-name="uni093F0930094D0902" 
d="M805 888q-88 0 -88 -96v-170h-9v-14h-62v87q0 77 -26 115.5t-72.5 50t-125.5 11.5h-22q-79 0 -125 -11.5t-72 -50t-26 -115.5v-54h115v-58h-115v-583h-71v583h-116v58h116v54q0 88 31 139t95 73.5t168 22.5h22q93 0 152.5 -18.5t91.5 -61.5q14 53 52.5 74t86.5 21
q41 0 67 -12v-60q-28 15 -67 15zM879 758l-63 -61l-62 61l62 63z" />
    <glyph glyph-name="uni09400902" 
d="M0 0zM209 742l63 62l63 -62l-63 -62zM291 583h-115v-583h-71v583h-115v58h115v86q0 63 -10.5 94.5t-30 41t-54.5 9.5h-20q-35 0 -54.5 -9.5t-30 -41t-10.5 -94.5v-119h-71v120q0 76 17 120t53 63t96 19h20q60 0 96 -19t53 -63t17 -120v-87h115v-58z" />
    <glyph glyph-name="uni09400930094D" 
d="M176 783v-142h115v-58h-115v-583h-71v583h-115v58h115v86q0 63 -10.5 94.5t-30 41t-54.5 9.5h-20q-35 0 -54.5 -9.5t-30 -41t-10.5 -94.5v-119h-71v120q0 76 17 120t53 63t96 19h20q49 0 80.5 -14t49.5 -45q33 59 119 59q41 0 68 -12v-60q-34 15 -66 15q-85 0 -85 -90z
" />
    <glyph glyph-name="uni09400930094D0902" 
d="M176 641h115v-58h-115v-583h-71v583h-115v58h115v86q0 63 -10.5 94.5t-30 41t-54.5 9.5h-20q-35 0 -54.5 -9.5t-30 -41t-10.5 -94.5v-119h-71v120q0 76 17 120t53 63t96 19h20q46 0 77 -12.5t49 -39.5q19 37 53.5 52t74.5 15q41 0 67 -12v-60q-28 15 -67 15
q-88 0 -88 -96v-151zM272 821l63 -63l-63 -61l-62 61z" />
    <glyph glyph-name="uni094B0902" 
d="M174 641h117v-58h-115v-583h-71v583h-115v58h114l-30 131q-12 51 -36.5 69t-77.5 18h-78v58h78q57 0 91 -10.5t56.5 -42t36.5 -92.5zM245 708l-63 62l63 62l63 -62z" />
    <glyph glyph-name="uni094B0930094D" 
d="M147 790q0 -35 7 -68.5t21 -80.5h116v-58h-115v-583h-71v583h-115v58h114l-30 131q-12 51 -36.5 69t-77.5 18h-78v57h78q54 0 87 -10.5t54 -40.5q22 39 64 54.5t87 15.5q43 0 65 -11v-60q-28 14 -62 14q-103 0 -108 -88z" />
    <glyph glyph-name="uni094B0930094D0902" 
d="M154 723q7 -34 21 -82h116v-58h-115v-583h-71v583h-115v58h114l-30 131q-12 51 -36.5 69t-77.5 18h-78v57h78q53 0 86 -10.5t54 -38.5q22 43 66 60.5t94 17.5q43 0 67 -11v-60q-28 14 -65 14q-110 0 -115 -96q0 -35 7 -69zM275 826l63 -62l-63 -62l-63 62z" />
    <glyph glyph-name="uni094C0902" 
d="M174 641h117v-58h-115v-583h-71v583h-115v58h108l-52 65q-25 31 -47.5 48.5t-54.5 26t-82 8.5h-88v57h88q64 0 101.5 -9.5t63.5 -31.5t60 -66l-27 118q-11 49 -37 66t-81 17h-78v58h78q57 0 91 -10.5t56.5 -41t35.5 -89.5zM248 708l-63 62l63 62l63 -62z" />
    <glyph glyph-name="uni094C0930094D" 
d="M147 790q0 -35 7 -68.5t21 -80.5h116v-58h-115v-583h-71v583h-115v58h91l-52 65q-27 33 -46.5 49.5t-47 24.5t-73.5 8h-88v58h88q58 0 95 -11t66 -36.5t67 -75.5l-30 131q-11 51 -37 68.5t-81 17.5h-78v57h78q51 0 83 -8.5t54 -33.5t36 -72q24 29 61.5 40.5t75.5 11.5
q43 0 65 -11v-60q-28 14 -62 14q-103 0 -108 -88z" />
    <glyph glyph-name="uni094C0930094D0902" 
d="M154 723q7 -34 21 -82h116v-58h-115v-583h-71v583h-115v58h91l-52 65q-27 33 -46.5 49.5t-47 24.5t-73.5 8h-88v58h88q58 0 95 -11t66 -36.5t67 -75.5l-30 131q-11 51 -37 68.5t-81 17.5h-78v57h78q50 0 82 -8.5t54 -32t36 -68.5q25 31 64.5 44t81.5 13q43 0 67 -11v-60
q-28 14 -65 14q-110 0 -115 -96q0 -35 7 -69zM275 826l63 -62l-63 -62l-63 62z" />
    <glyph glyph-name="uni093F.0" 
d="M520.5 907.5q52.5 -22.5 75.5 -73t22 -139.5v-95h-71v95q0 79 -17.5 116.5t-52 49t-99.5 11.5h-33q-60 0 -95 -11.5t-54.5 -50t-19.5 -115.5v-54h115v-58h-115v-583h-71v583h-115v58h115v54q0 88 25 139t77 73.5t138 22.5h33q90 0 142.5 -22.5z" />
    <glyph glyph-name="uni093F0902.0" 
d="M0 0zM656 742l63 62l63 -62l-63 -62zM520.5 907.5q52.5 -22.5 75.5 -73t22 -139.5v-95h-71v95q0 79 -17.5 116.5t-52 49t-99.5 11.5h-33q-60 0 -95 -11.5t-54.5 -50t-19.5 -115.5v-54h115v-58h-115v-583h-71v583h-115v58h115v54q0 88 25 139t77 73.5t138 22.5h33
q90 0 142.5 -22.5z" />
    <glyph glyph-name="uni093F0930094D.0" 
d="M774 933v-60q-30 15 -67 15q-89 0 -89 -96v-170h-8v-22h-63v95q0 79 -17.5 116.5t-52 49t-99.5 11.5h-33q-60 0 -95 -11.5t-54.5 -50t-19.5 -115.5v-54h115v-58h-115v-583h-71v583h-115v58h115v54q0 88 25 139t77 73.5t138 22.5h33q73 0 120 -16t74 -51q16 46 53 64
t81 18q41 0 68 -12z" />
    <glyph glyph-name="uni093F0930094D0902.0" 
d="M707 888q-89 0 -89 -96v-170h-8v-22h-63v95q0 79 -17.5 116.5t-52 49t-99.5 11.5h-33q-60 0 -95 -11.5t-54.5 -50t-19.5 -115.5v-54h115v-58h-115v-583h-71v583h-115v58h115v54q0 88 25 139t77 73.5t138 22.5h33q73 0 120 -16t74 -51q16 46 53 64t81 18q41 0 68 -12v-60
q-30 15 -67 15zM780 758l-62 -61l-63 61l63 63z" />
    <glyph glyph-name="uni093F.015" 
d="M571 907.5q59 -22.5 87.5 -73.5t29.5 -139v-87h-71v87q0 77 -23.5 115.5t-65 50t-111.5 11.5h-35q-73 0 -115.5 -11.5t-66 -50t-23.5 -115.5v-54h115v-58h-115v-583h-71v583h-116v58h116v54q0 88 29 139t89 73.5t158 22.5h35q95 0 154 -22.5z" />
    <glyph glyph-name="uni093F0902.015" horiz-adv-x="600" 
 />
    <glyph glyph-name="uni093F0930094D.015" 
d="M844 933v-60q-30 15 -67 15q-89 0 -89 -96v-170h-8v-14h-63v87q0 77 -23.5 115.5t-65 50t-111.5 11.5h-35q-73 0 -115.5 -11.5t-66 -50t-23.5 -115.5v-54h115v-58h-115v-583h-71v583h-116v58h116v54q0 88 29 139t89 73.5t158 22.5h35q83 0 137.5 -18t84.5 -59
q15 51 53 71.5t84 20.5q41 0 68 -12z" />
    <glyph glyph-name="uni093F0930094D0902.015" 
d="M777 888q-89 0 -89 -96v-170h-8v-14h-63v87q0 77 -23.5 115.5t-65 50t-111.5 11.5h-35q-73 0 -115.5 -11.5t-66 -50t-23.5 -115.5v-54h115v-58h-115v-583h-71v583h-116v58h116v54q0 88 29 139t89 73.5t158 22.5h35q83 0 137.5 -18t84.5 -59q15 51 53 71.5t84 20.5
q41 0 68 -12v-60q-30 15 -67 15zM850 759l-62 -62l-63 62l63 62z" />
    <glyph glyph-name="uni093F.045" 
d="M643.5 907.5q65.5 -22.5 97.5 -73.5t32 -139v-87h-70v87q0 77 -27 115.5t-75 50t-130 11.5h-46q-88 0 -139 -11.5t-80 -50t-29 -115.5v-54h115v-58h-115v-583h-71v583h-116v58h116v54q0 88 33.5 139t103 73.5t182.5 22.5h46q107 0 172.5 -22.5z" />
    <glyph glyph-name="uni093F0902.045" horiz-adv-x="600" 
 />
    <glyph glyph-name="uni093F0930094D.045" 
d="M929 933v-60q-28 15 -67 15q-89 0 -89 -96v-170h-8v-14h-62v87q0 77 -27 115.5t-75 50t-130 11.5h-46q-88 0 -139 -11.5t-80 -50t-29 -115.5v-54h115v-58h-115v-583h-71v583h-116v58h116v54q0 88 33.5 139t103 73.5t182.5 22.5h46q96 0 157.5 -19t94.5 -61q14 53 52 74
t86 21q42 0 68 -12z" />
    <glyph glyph-name="uni093F0930094D0902.045" 
d="M862 888q-89 0 -89 -96v-170h-8v-14h-62v87q0 77 -27 115.5t-75 50t-130 11.5h-46q-88 0 -139 -11.5t-80 -50t-29 -115.5v-54h115v-58h-115v-583h-71v583h-116v58h116v54q0 88 33.5 139t103 73.5t182.5 22.5h46q96 0 157.5 -19t94.5 -61q14 53 52 74t86 21q42 0 68 -12
v-60q-28 15 -67 15zM935 758l-62 -61l-63 61l63 63z" />
    <glyph glyph-name="uni093F.055" 
d="M703.5 907.5q66.5 -22.5 99 -73.5t33.5 -139v-95h-71v95q0 77 -27.5 115.5t-77 50t-132.5 11.5h-110q-85 0 -135.5 -11.5t-78.5 -50t-28 -115.5v-54h115v-58h-115v-583h-71v583h-115v58h115v54q0 88 33 139t101 73.5t179 22.5h110q109 0 175.5 -22.5z" />
    <glyph glyph-name="uni093F0902.055" horiz-adv-x="600" 
 />
    <glyph glyph-name="uni093F0930094D.055" 
d="M991 933v-60q-28 15 -67 15q-88 0 -88 -96v-170h-9v-22h-62v95q0 77 -27.5 115.5t-77 50t-132.5 11.5h-110q-85 0 -135.5 -11.5t-78.5 -50t-28 -115.5v-54h115v-58h-115v-583h-71v583h-115v58h115v54q0 88 33 139t101 73.5t179 22.5h110q98 0 160.5 -19.5t96.5 -62.5
q14 54 52 75.5t86 21.5q42 0 68 -12z" />
    <glyph glyph-name="uni093F0930094D0902.055" 
d="M924 888q-88 0 -88 -96v-170h-9v-22h-62v95q0 77 -27.5 115.5t-77 50t-132.5 11.5h-110q-85 0 -135.5 -11.5t-78.5 -50t-28 -115.5v-54h115v-58h-115v-583h-71v583h-115v58h115v54q0 88 33 139t101 73.5t179 22.5h110q98 0 160.5 -19.5t96.5 -62.5q14 54 52 75.5t86 21.5
q42 0 68 -12v-60q-28 15 -67 15zM998 758l-62 -61l-63 61l63 63z" />
    <glyph glyph-name="uni093F.057" 
d="M711 907.5q66 -22.5 98.5 -73.5t33.5 -139v-95h-70v95q0 77 -27.5 115.5t-77 50t-132.5 11.5h-118q-85 0 -135.5 -11.5t-78.5 -50t-28 -115.5v-54h115v-58h-115v-583h-71v583h-115v58h115v54q0 88 33 139t101 73.5t179 22.5h118q109 0 175 -22.5z" />
    <glyph glyph-name="uni093F0902.057" horiz-adv-x="600" 
 />
    <glyph glyph-name="uni093F0930094D.057" 
d="M999 933v-60q-28 15 -67 15q-89 0 -89 -96v-170h-8v-22h-62v95q0 77 -27.5 115.5t-77 50t-132.5 11.5h-118q-85 0 -135.5 -11.5t-78.5 -50t-28 -115.5v-54h115v-58h-115v-583h-71v583h-115v58h115v54q0 88 33 139t101 73.5t179 22.5h118q98 0 160.5 -19.5t95.5 -62.5
q14 54 53 75.5t86 21.5q42 0 68 -12z" />
    <glyph glyph-name="uni093F0930094D0902.057" 
d="M932 888q-89 0 -89 -96v-170h-8v-22h-62v95q0 77 -27.5 115.5t-77 50t-132.5 11.5h-118q-85 0 -135.5 -11.5t-78.5 -50t-28 -115.5v-54h115v-58h-115v-583h-71v583h-115v58h115v54q0 88 33 139t101 73.5t179 22.5h118q98 0 160.5 -19.5t95.5 -62.5q14 54 53 75.5t86 21.5
q42 0 68 -12v-60q-28 15 -67 15zM1006 758l-62 -61l-63 61l63 63z" />
    <glyph glyph-name="uni093F.059" 
d="M822 907.5q66 -22.5 98.5 -73.5t33.5 -139v-95h-70v95q0 77 -27.5 115.5t-77 50t-132.5 11.5h-229q-85 0 -135.5 -11.5t-78.5 -50t-28 -115.5v-54h115v-58h-115v-583h-71v583h-115v58h115v54q0 88 33 139t101 73.5t179 22.5h229q109 0 175 -22.5z" />
    <glyph glyph-name="uni093F0902.059" horiz-adv-x="600" 
 />
    <glyph glyph-name="uni093F0930094D.059" 
d="M1110 933v-60q-28 15 -67 15q-89 0 -89 -96v-170h-8v-22h-62v95q0 77 -27.5 115.5t-77 50t-132.5 11.5h-229q-85 0 -135.5 -11.5t-78.5 -50t-28 -115.5v-54h115v-58h-115v-583h-71v583h-115v58h115v54q0 88 33 139t101 73.5t179 22.5h229q98 0 160.5 -19.5t95.5 -62.5
q14 54 53 75.5t86 21.5q42 0 68 -12z" />
    <glyph glyph-name="uni093F0930094D0902.059" 
d="M1043 888q-89 0 -89 -96v-170h-8v-22h-62v95q0 77 -27.5 115.5t-77 50t-132.5 11.5h-229q-85 0 -135.5 -11.5t-78.5 -50t-28 -115.5v-54h115v-58h-115v-583h-71v583h-115v58h115v54q0 88 33 139t101 73.5t179 22.5h229q98 0 160.5 -19.5t95.5 -62.5q14 54 53 75.5
t86 21.5q42 0 68 -12v-60q-28 15 -67 15zM1117 758l-62 -61l-63 61l63 63z" />
    <glyph glyph-name="uni093F.073" 
d="M797.5 907.5q68.5 -22.5 102 -73.5t34.5 -139v-95h-71v95q0 77 -28.5 115.5t-79.5 50t-138 11.5h-190q-88 0 -140 -11.5t-81.5 -50t-29.5 -115.5v-54h115v-58h-115v-583h-71v583h-115v58h115v54q0 88 34 139t104 73.5t184 22.5h190q112 0 180.5 -22.5z" />
    <glyph glyph-name="uni093F0902.073" horiz-adv-x="600" 
 />
    <glyph glyph-name="uni093F0930094D.073" 
d="M1090 933v-60q-30 15 -67 15q-89 0 -89 -96v-170h-8v-22h-63v95q0 77 -28.5 115.5t-79.5 50t-138 11.5h-190q-88 0 -140 -11.5t-81.5 -50t-29.5 -115.5v-54h115v-58h-115v-583h-71v583h-115v58h115v54q0 88 34 139t104 73.5t184 22.5h190q102 0 166.5 -19.5t99.5 -63.5
q14 54 52.5 76t86.5 22q41 0 68 -12z" />
    <glyph glyph-name="uni093F0930094D0902.073" 
d="M1023 888q-89 0 -89 -96v-170h-8v-22h-63v95q0 77 -28.5 115.5t-79.5 50t-138 11.5h-190q-88 0 -140 -11.5t-81.5 -50t-29.5 -115.5v-54h115v-58h-115v-583h-71v583h-115v58h115v54q0 88 34 139t104 73.5t184 22.5h190q102 0 166.5 -19.5t99.5 -63.5q14 54 52.5 76
t86.5 22q41 0 68 -12v-60q-30 15 -67 15zM1097 758l-63 -61l-63 61l63 63z" />
    <glyph glyph-name="uni093F.075" 
d="M844.5 907.5q68.5 -22.5 102 -73.5t34.5 -139v-95h-71v95q0 77 -28.5 115.5t-79.5 50t-138 11.5h-237q-88 0 -140 -11.5t-81.5 -50t-29.5 -115.5v-54h115v-58h-115v-583h-71v583h-115v58h115v54q0 88 34 139t104 73.5t184 22.5h237q112 0 180.5 -22.5z" />
    <glyph glyph-name="uni093F0902.075" horiz-adv-x="600" 
 />
    <glyph glyph-name="uni093F0930094D.075" 
d="M1136 933v-60q-28 15 -67 15q-88 0 -88 -96v-170h-9v-22h-62v95q0 77 -28.5 115.5t-79.5 50t-138 11.5h-237q-88 0 -140 -11.5t-81.5 -50t-29.5 -115.5v-54h115v-58h-115v-583h-71v583h-115v58h115v54q0 88 34 139t104 73.5t184 22.5h237q102 0 166.5 -19.5t98.5 -63.5
q14 54 52.5 76t86.5 22q42 0 68 -12z" />
    <glyph glyph-name="uni093F0930094D0902.075" 
d="M1069 888q-88 0 -88 -96v-170h-9v-22h-62v95q0 77 -28.5 115.5t-79.5 50t-138 11.5h-237q-88 0 -140 -11.5t-81.5 -50t-29.5 -115.5v-54h115v-58h-115v-583h-71v583h-115v58h115v54q0 88 34 139t104 73.5t184 22.5h237q102 0 166.5 -19.5t98.5 -63.5q14 54 52.5 76
t86.5 22q42 0 68 -12v-60q-28 15 -67 15zM1143 758l-62 -61l-63 61l63 63z" />
    <glyph glyph-name="uni093F.101" 
d="M909 907.5q68 -22.5 101.5 -73.5t34.5 -139v-95h-71v95q0 77 -28.5 115.5t-79 50t-137.5 11.5h-302q-88 0 -140 -11.5t-81.5 -50t-29.5 -115.5v-54h115v-58h-115v-583h-71v583h-115v58h115v54q0 88 34 139t104 73.5t184 22.5h302q112 0 180 -22.5z" />
    <glyph glyph-name="uni093F0902.101" horiz-adv-x="600" 
 />
    <glyph glyph-name="uni093F0930094D.101" 
d="M1201 933v-60q-30 15 -67 15q-89 0 -89 -96v-170h-8v-22h-63v95q0 77 -28.5 115.5t-79.5 50t-138 11.5h-301q-88 0 -140 -11.5t-81.5 -50t-29.5 -115.5v-54h115v-58h-115v-583h-71v583h-115v58h115v54q0 88 34 139t104 73.5t184 22.5h301q102 0 166.5 -19.5t99.5 -63.5
q14 54 52.5 76t86.5 22q41 0 68 -12z" />
    <glyph glyph-name="uni093F0930094D0902.101" 
d="M1134 888q-88 0 -88 -96v-170h-9v-22h-62v95q0 77 -28.5 115.5t-79.5 50t-138 11.5h-302q-88 0 -140 -11.5t-81.5 -50t-29.5 -115.5v-54h115v-58h-115v-583h-71v583h-115v58h115v54q0 88 34 139t104 73.5t184 22.5h302q102 0 166.5 -19.5t98.5 -63.5q14 54 52.5 76
t86.5 22q42 0 68 -12v-60q-28 15 -67 15zM1208 758l-63 -61l-62 61l62 63z" />
    <glyph glyph-name="uni093F.102" 
d="M950.5 907.5q68.5 -22.5 102 -73.5t34.5 -139v-95h-70v95q0 77 -29 115.5t-80 50t-138 11.5h-343q-88 0 -140 -11.5t-81.5 -50t-29.5 -115.5v-54h115v-58h-115v-583h-71v583h-115v58h115v54q0 88 34 139t104 73.5t184 22.5h343q112 0 180.5 -22.5z" />
    <glyph glyph-name="uni093F0902.102" horiz-adv-x="600" 
 />
    <glyph glyph-name="uni093F0930094D.102" 
d="M1243 933v-60q-30 15 -67 15q-89 0 -89 -96v-170h-8v-22h-62v95q0 77 -29 115.5t-80 50t-138 11.5h-343q-88 0 -140 -11.5t-81.5 -50t-29.5 -115.5v-54h115v-58h-115v-583h-71v583h-115v58h115v54q0 88 34 139t104 73.5t184 22.5h343q102 0 166.5 -19.5t99.5 -63.5
q14 54 52.5 76t86.5 22q42 0 68 -12z" />
    <glyph glyph-name="uni093F0930094D0902.102" 
d="M1176 888q-89 0 -89 -96v-170h-8v-22h-62v95q0 77 -29 115.5t-80 50t-138 11.5h-343q-88 0 -140 -11.5t-81.5 -50t-29.5 -115.5v-54h115v-58h-115v-583h-71v583h-115v58h115v54q0 88 34 139t104 73.5t184 22.5h343q102 0 166.5 -19.5t99.5 -63.5q14 54 52.5 76t86.5 22
q42 0 68 -12v-60q-30 15 -67 15zM1250 758l-63 -61l-62 61l62 63z" />
    <glyph glyph-name="uni093F.103" 
d="M1000.5 907.5q68.5 -22.5 102 -73.5t34.5 -139v-95h-70v95q0 77 -29 115.5t-80 50t-138 11.5h-393q-88 0 -140 -11.5t-81.5 -50t-29.5 -115.5v-54h115v-58h-115v-583h-71v583h-115v58h115v54q0 88 34 139t104 73.5t184 22.5h393q112 0 180.5 -22.5z" />
    <glyph glyph-name="uni093F0902.103" horiz-adv-x="600" 
 />
    <glyph glyph-name="uni093F0930094D.103" 
d="M1293 933v-60q-30 15 -67 15q-89 0 -89 -96v-170h-8v-22h-62v95q0 77 -29 115.5t-80 50t-138 11.5h-393q-88 0 -140 -11.5t-81.5 -50t-29.5 -115.5v-54h115v-58h-115v-583h-71v583h-115v58h115v54q0 88 34 139t104 73.5t184 22.5h393q102 0 166.5 -19.5t99.5 -63.5
q14 54 52.5 76t86.5 22q42 0 68 -12z" />
    <glyph glyph-name="uni093F0930094D0902.103" 
d="M1226 888q-89 0 -89 -96v-170h-8v-22h-62v95q0 77 -29 115.5t-80 50t-138 11.5h-393q-88 0 -140 -11.5t-81.5 -50t-29.5 -115.5v-54h115v-58h-115v-583h-71v583h-115v58h115v54q0 88 34 139t104 73.5t184 22.5h393q102 0 166.5 -19.5t99.5 -63.5q14 54 52.5 76t86.5 22
q42 0 68 -12v-60q-30 15 -67 15zM1300 758l-63 -61l-62 61l62 63z" />
    <glyph glyph-name="uni093F.104" 
d="M1063.5 907.5q68.5 -22.5 102 -73.5t34.5 -139v-95h-71v95q0 77 -28.5 115.5t-79.5 50t-138 11.5h-456q-88 0 -140 -11.5t-81.5 -50t-29.5 -115.5v-54h115v-58h-115v-583h-71v583h-115v58h115v54q0 88 34 139t104 73.5t184 22.5h456q112 0 180.5 -22.5z" />
    <glyph glyph-name="uni093F0902.104" horiz-adv-x="600" 
 />
    <glyph glyph-name="uni093F0930094D.104" 
d="M1356 933v-60q-30 15 -67 15q-89 0 -89 -96v-170h-8v-22h-63v95q0 77 -28.5 115.5t-79.5 50t-138 11.5h-456q-88 0 -140 -11.5t-81.5 -50t-29.5 -115.5v-54h115v-58h-115v-583h-71v583h-115v58h115v54q0 88 34 139t104 73.5t184 22.5h456q102 0 166.5 -19.5t99.5 -63.5
q14 54 52.5 76t86.5 22q41 0 68 -12z" />
    <glyph glyph-name="uni093F0930094D0902.104" 
d="M1289 888q-89 0 -89 -96v-170h-8v-22h-63v95q0 77 -28.5 115.5t-79.5 50t-138 11.5h-456q-88 0 -140 -11.5t-81.5 -50t-29.5 -115.5v-54h115v-58h-115v-583h-71v583h-115v58h115v54q0 88 34 139t104 73.5t184 22.5h456q102 0 166.5 -19.5t99.5 -63.5q14 54 52.5 76
t86.5 22q41 0 68 -12v-60q-30 15 -67 15zM1363 758l-63 -61l-62 61l62 63z" />
    <glyph glyph-name="uni093F.105" 
d="M1097.5 907.5q68.5 -22.5 102 -73.5t34.5 -139v-95h-71v95q0 77 -28.5 115.5t-79.5 50t-138 11.5h-490q-88 0 -140 -11.5t-81.5 -50t-29.5 -115.5v-54h115v-58h-115v-583h-71v583h-115v58h115v54q0 88 34 139t104 73.5t184 22.5h490q112 0 180.5 -22.5z" />
    <glyph glyph-name="uni093F0902.105" horiz-adv-x="600" 
 />
    <glyph glyph-name="uni093F0930094D.105" 
d="M1390 933v-60q-30 15 -67 15q-89 0 -89 -96v-170h-8v-22h-63v95q0 77 -28.5 115.5t-79.5 50t-138 11.5h-490q-88 0 -140 -11.5t-81.5 -50t-29.5 -115.5v-54h115v-58h-115v-583h-71v583h-115v58h115v54q0 88 34 139t104 73.5t184 22.5h490q102 0 166.5 -19.5t99.5 -63.5
q14 54 52.5 76t86.5 22q41 0 68 -12z" />
    <glyph glyph-name="uni093F0930094D0902.105" 
d="M1323 888q-89 0 -89 -96v-170h-8v-22h-63v95q0 77 -28.5 115.5t-79.5 50t-138 11.5h-490q-88 0 -140 -11.5t-81.5 -50t-29.5 -115.5v-54h115v-58h-115v-583h-71v583h-115v58h115v54q0 88 34 139t104 73.5t184 22.5h490q102 0 166.5 -19.5t99.5 -63.5q14 54 52.5 76
t86.5 22q41 0 68 -12v-60q-30 15 -67 15zM1398 758l-62 -61l-63 61l63 63z" />
    <glyph glyph-name="uni093F.106" 
d="M1151.5 907.5q68.5 -22.5 102 -73.5t34.5 -139v-95h-71v95q0 77 -28.5 115.5t-79.5 50t-138 11.5h-544q-88 0 -140 -11.5t-81.5 -50t-29.5 -115.5v-54h115v-58h-115v-583h-71v583h-115v58h115v54q0 88 34 139t104 73.5t184 22.5h544q112 0 180.5 -22.5z" />
    <glyph glyph-name="uni093F0902.106" horiz-adv-x="600" 
 />
    <glyph glyph-name="uni093F0930094D.106" 
d="M1444 933v-60q-30 15 -67 15q-89 0 -89 -96v-170h-8v-22h-63v95q0 77 -28.5 115.5t-79.5 50t-138 11.5h-544q-88 0 -140 -11.5t-81.5 -50t-29.5 -115.5v-54h115v-58h-115v-583h-71v583h-115v58h115v54q0 88 34 139t104 73.5t184 22.5h544q102 0 166.5 -19.5t99.5 -63.5
q14 54 52.5 76t86.5 22q41 0 68 -12z" />
    <glyph glyph-name="uni093F0930094D0902.106" 
d="M1377 888q-89 0 -89 -96v-170h-8v-22h-63v95q0 77 -28.5 115.5t-79.5 50t-138 11.5h-544q-88 0 -140 -11.5t-81.5 -50t-29.5 -115.5v-54h115v-58h-115v-583h-71v583h-115v58h115v54q0 88 34 139t104 73.5t184 22.5h544q102 0 166.5 -19.5t99.5 -63.5q14 54 52.5 76
t86.5 22q41 0 68 -12v-60q-30 15 -67 15zM1453 758l-63 -61l-63 61l63 63z" />
    <glyph glyph-name="uni093F.107" 
d="M1205.5 907.5q68.5 -22.5 102 -73.5t34.5 -139v-95h-70v95q0 77 -29 115.5t-80 50t-138 11.5h-598q-88 0 -140 -11.5t-81.5 -50t-29.5 -115.5v-54h115v-58h-115v-583h-71v583h-115v58h115v54q0 88 34 139t104 73.5t184 22.5h598q112 0 180.5 -22.5z" />
    <glyph glyph-name="uni093F0902.107" horiz-adv-x="600" 
 />
    <glyph glyph-name="uni093F0930094D.107" 
d="M1498 933v-60q-30 15 -67 15q-89 0 -89 -96v-170h-8v-22h-62v95q0 77 -29 115.5t-80 50t-138 11.5h-598q-88 0 -140 -11.5t-81.5 -50t-29.5 -115.5v-54h115v-58h-115v-583h-71v583h-115v58h115v54q0 88 34 139t104 73.5t184 22.5h598q102 0 166.5 -19.5t99.5 -63.5
q14 54 52.5 76t86.5 22q42 0 68 -12z" />
    <glyph glyph-name="uni093F0930094D0902.107" 
d="M1431 888q-89 0 -89 -96v-170h-8v-22h-62v95q0 77 -29 115.5t-80 50t-138 11.5h-598q-88 0 -140 -11.5t-81.5 -50t-29.5 -115.5v-54h115v-58h-115v-583h-71v583h-115v58h115v54q0 88 34 139t104 73.5t184 22.5h598q102 0 166.5 -19.5t99.5 -63.5q14 54 52.5 76t86.5 22
q42 0 68 -12v-60q-30 15 -67 15zM1507 758l-63 -61l-63 61l63 63z" />
    <glyph glyph-name="uni093F.108" 
d="M1260 907.5q68 -22.5 101.5 -73.5t34.5 -139v-95h-70v95q0 77 -28.5 115.5t-79.5 50t-138 11.5h-653q-88 0 -140 -11.5t-81.5 -50t-29.5 -115.5v-54h115v-58h-115v-583h-71v583h-115v58h115v54q0 88 34 139t104 73.5t184 22.5h653q112 0 180 -22.5z" />
    <glyph glyph-name="uni093F0902.108" horiz-adv-x="600" 
 />
    <glyph glyph-name="uni093F0930094D.108" 
d="M1552 933v-60q-28 15 -67 15q-89 0 -89 -96v-170h-8v-22h-62v95q0 77 -28.5 115.5t-79.5 50t-138 11.5h-653q-88 0 -140 -11.5t-81.5 -50t-29.5 -115.5v-54h115v-58h-115v-583h-71v583h-115v58h115v54q0 88 34 139t104 73.5t184 22.5h653q102 0 166.5 -19.5t98.5 -63.5
q14 54 52.5 76t86.5 22q42 0 68 -12z" />
    <glyph glyph-name="uni093F0930094D0902.108" 
d="M1485 888q-89 0 -89 -96v-170h-8v-22h-62v95q0 77 -28.5 115.5t-79.5 50t-138 11.5h-653q-88 0 -140 -11.5t-81.5 -50t-29.5 -115.5v-54h115v-58h-115v-583h-71v583h-115v58h115v54q0 88 34 139t104 73.5t184 22.5h653q102 0 166.5 -19.5t98.5 -63.5q14 54 52.5 76
t86.5 22q42 0 68 -12v-60q-28 15 -67 15zM1559 758l-62 -61l-63 61l63 63z" />
    <glyph glyph-name="uni093F.109" 
d="M1315.5 907.5q68.5 -22.5 102 -73.5t34.5 -139v-95h-71v95q0 77 -28.5 115.5t-79.5 50t-138 11.5h-708q-88 0 -140 -11.5t-81.5 -50t-29.5 -115.5v-54h115v-58h-115v-583h-71v583h-115v58h115v54q0 88 34 139t104 73.5t184 22.5h708q112 0 180.5 -22.5z" />
    <glyph glyph-name="uni093F0902.109" horiz-adv-x="600" 
 />
    <glyph glyph-name="uni093F0930094D.109" 
d="M1607 933v-60q-28 15 -67 15q-88 0 -88 -96v-170h-9v-22h-62v95q0 77 -28.5 115.5t-79.5 50t-138 11.5h-708q-88 0 -140 -11.5t-81.5 -50t-29.5 -115.5v-54h115v-58h-115v-583h-71v583h-115v58h115v54q0 88 34 139t104 73.5t184 22.5h708q102 0 166.5 -19.5t99.5 -63.5
q14 54 52.5 76t86.5 22q41 0 67 -12z" />
    <glyph glyph-name="uni093F0930094D0902.109" 
d="M1540 888q-88 0 -88 -96v-170h-9v-22h-62v95q0 77 -28.5 115.5t-79.5 50t-138 11.5h-708q-88 0 -140 -11.5t-81.5 -50t-29.5 -115.5v-54h115v-58h-115v-583h-71v583h-115v58h115v54q0 88 34 139t104 73.5t184 22.5h708q102 0 166.5 -19.5t99.5 -63.5q14 54 52.5 76
t86.5 22q41 0 67 -12v-60q-28 15 -67 15zM1615 758l-63 -61l-63 61l63 63z" />
    <glyph glyph-name="uni093F.110" 
d="M1347.5 907.5q68.5 -22.5 102 -73.5t34.5 -139v-95h-71v95q0 77 -28.5 115.5t-79.5 50t-138 11.5h-740q-88 0 -140 -11.5t-81.5 -50t-29.5 -115.5v-54h115v-58h-115v-583h-71v583h-115v58h115v54q0 88 34 139t104 73.5t184 22.5h740q112 0 180.5 -22.5z" />
    <glyph glyph-name="uni093F0902.110" horiz-adv-x="600" 
 />
    <glyph glyph-name="uni093F0930094D.110" 
d="M1640 933v-60q-30 15 -67 15q-89 0 -89 -96v-170h-8v-22h-63v95q0 77 -28.5 115.5t-79.5 50t-138 11.5h-740q-88 0 -140 -11.5t-81.5 -50t-29.5 -115.5v-54h115v-58h-115v-583h-71v583h-115v58h115v54q0 88 34 139t104 73.5t184 22.5h740q102 0 166.5 -19.5t99.5 -63.5
q14 54 52.5 76t86.5 22q41 0 68 -12z" />
    <glyph glyph-name="uni093F0930094D0902.110" 
d="M1573 888q-89 0 -89 -96v-170h-8v-22h-63v95q0 77 -28.5 115.5t-79.5 50t-138 11.5h-740q-88 0 -140 -11.5t-81.5 -50t-29.5 -115.5v-54h115v-58h-115v-583h-71v583h-115v58h115v54q0 88 34 139t104 73.5t184 22.5h740q102 0 166.5 -19.5t99.5 -63.5q14 54 52.5 76
t86.5 22q41 0 68 -12v-60q-30 15 -67 15zM1647 758l-63 -61l-63 61l63 63z" />
    <glyph glyph-name="uni093F.111" 
d="M1397.5 907.5q68.5 -22.5 102 -73.5t34.5 -139v-95h-71v95q0 77 -28.5 115.5t-79.5 50t-138 11.5h-790q-88 0 -140 -11.5t-81.5 -50t-29.5 -115.5v-54h115v-58h-115v-583h-71v583h-115v58h115v54q0 88 34 139t104 73.5t184 22.5h790q112 0 180.5 -22.5z" />
    <glyph glyph-name="uni093F0902.111" horiz-adv-x="600" 
 />
    <glyph glyph-name="uni093F0930094D.111" 
d="M1690 933v-60q-30 15 -67 15q-89 0 -89 -96v-170h-8v-22h-63v95q0 77 -28.5 115.5t-79.5 50t-138 11.5h-790q-88 0 -140 -11.5t-81.5 -50t-29.5 -115.5v-54h115v-58h-115v-583h-71v583h-115v58h115v54q0 88 34 139t104 73.5t184 22.5h790q102 0 166.5 -19.5t99.5 -63.5
q14 54 52.5 76t86.5 22q41 0 68 -12z" />
    <glyph glyph-name="uni093F0930094D0902.111" 
d="M1623 888q-89 0 -89 -96v-170h-8v-22h-63v95q0 77 -28.5 115.5t-79.5 50t-138 11.5h-790q-88 0 -140 -11.5t-81.5 -50t-29.5 -115.5v-54h115v-58h-115v-583h-71v583h-115v58h115v54q0 88 34 139t104 73.5t184 22.5h790q102 0 166.5 -19.5t99.5 -63.5q14 54 52.5 76
t86.5 22q41 0 68 -12v-60q-30 15 -67 15zM1697 758l-63 -61l-63 61l63 63z" />
    <glyph glyph-name="uni093F.112" 
d="M1447.5 907.5q68.5 -22.5 102 -73.5t34.5 -139v-95h-71v95q0 77 -28.5 115.5t-79.5 50t-138 11.5h-840q-88 0 -140 -11.5t-81.5 -50t-29.5 -115.5v-54h115v-58h-115v-583h-71v583h-115v58h115v54q0 88 34 139t104 73.5t184 22.5h840q112 0 180.5 -22.5z" />
    <glyph glyph-name="uni093F0902.112" horiz-adv-x="600" 
 />
    <glyph glyph-name="uni093F0930094D.112" 
d="M1740 933v-60q-30 15 -67 15q-89 0 -89 -96v-170h-8v-22h-63v95q0 77 -28.5 115.5t-79.5 50t-138 11.5h-840q-88 0 -140 -11.5t-81.5 -50t-29.5 -115.5v-54h115v-58h-115v-583h-71v583h-115v58h115v54q0 88 34 139t104 73.5t184 22.5h840q102 0 166.5 -19.5t99.5 -63.5
q14 54 52.5 76t86.5 22q41 0 68 -12z" />
    <glyph glyph-name="uni093F0930094D0902.112" 
d="M1673 888q-89 0 -89 -96v-170h-8v-22h-63v95q0 77 -28.5 115.5t-79.5 50t-138 11.5h-840q-88 0 -140 -11.5t-81.5 -50t-29.5 -115.5v-54h115v-58h-115v-583h-71v583h-115v58h115v54q0 88 34 139t104 73.5t184 22.5h840q102 0 166.5 -19.5t99.5 -63.5q14 54 52.5 76
t86.5 22q41 0 68 -12v-60q-30 15 -67 15zM1747 758l-63 -61l-63 61l63 63z" />
    <glyph glyph-name="uni093F.113" 
d="M1497.5 907.5q68.5 -22.5 102 -73.5t34.5 -139v-95h-71v95q0 77 -28.5 115.5t-79.5 50t-138 11.5h-890q-88 0 -140 -11.5t-81.5 -50t-29.5 -115.5v-54h115v-58h-115v-583h-71v583h-115v58h115v54q0 88 34 139t104 73.5t184 22.5h890q112 0 180.5 -22.5z" />
    <glyph glyph-name="uni093F0902.113" horiz-adv-x="600" 
 />
    <glyph glyph-name="uni093F0930094D.113" 
d="M1790 933v-60q-30 15 -67 15q-89 0 -89 -96v-170h-8v-22h-63v95q0 77 -28.5 115.5t-79.5 50t-138 11.5h-890q-88 0 -140 -11.5t-81.5 -50t-29.5 -115.5v-54h115v-58h-115v-583h-71v583h-115v58h115v54q0 88 34 139t104 73.5t184 22.5h890q102 0 166.5 -19.5t99.5 -63.5
q14 54 52.5 76t86.5 22q41 0 68 -12z" />
    <glyph glyph-name="uni093F0930094D0902.113" 
d="M1723 888q-89 0 -89 -96v-170h-8v-22h-63v95q0 77 -28.5 115.5t-79.5 50t-138 11.5h-890q-88 0 -140 -11.5t-81.5 -50t-29.5 -115.5v-54h115v-58h-115v-583h-71v583h-115v58h115v54q0 88 34 139t104 73.5t184 22.5h890q102 0 166.5 -19.5t99.5 -63.5q14 54 52.5 76
t86.5 22q41 0 68 -12v-60q-30 15 -67 15zM1797 758l-63 -61l-63 61l63 63z" />
    <glyph glyph-name="uni093F.114" 
d="M1547.5 907.5q68.5 -22.5 102 -73.5t34.5 -139v-95h-71v95q0 77 -28.5 115.5t-79.5 50t-138 11.5h-940q-88 0 -140 -11.5t-81.5 -50t-29.5 -115.5v-54h115v-58h-115v-583h-71v583h-115v58h115v54q0 88 34 139t104 73.5t184 22.5h940q112 0 180.5 -22.5z" />
    <glyph glyph-name="uni093F0902.114" horiz-adv-x="600" 
 />
    <glyph glyph-name="uni093F0930094D.114" 
d="M1840 933v-60q-30 15 -67 15q-89 0 -89 -96v-170h-8v-22h-63v95q0 77 -28.5 115.5t-79.5 50t-138 11.5h-940q-88 0 -140 -11.5t-81.5 -50t-29.5 -115.5v-54h115v-58h-115v-583h-71v583h-115v58h115v54q0 88 34 139t104 73.5t184 22.5h940q102 0 166.5 -19.5t99.5 -63.5
q14 54 52.5 76t86.5 22q41 0 68 -12z" />
    <glyph glyph-name="uni093F0930094D0902.114" 
d="M1773 888q-89 0 -89 -96v-170h-8v-22h-63v95q0 77 -28.5 115.5t-79.5 50t-138 11.5h-940q-88 0 -140 -11.5t-81.5 -50t-29.5 -115.5v-54h115v-58h-115v-583h-71v583h-115v58h115v54q0 88 34 139t104 73.5t184 22.5h940q102 0 166.5 -19.5t99.5 -63.5q14 54 52.5 76
t86.5 22q41 0 68 -12v-60q-30 15 -67 15zM1847 758l-63 -61l-63 61l63 63z" />
    <glyph glyph-name="uni093F.115" 
d="M1597.5 907.5q68.5 -22.5 102 -73.5t34.5 -139v-95h-71v95q0 77 -28.5 115.5t-79.5 50t-138 11.5h-990q-88 0 -140 -11.5t-81.5 -50t-29.5 -115.5v-54h115v-58h-115v-583h-71v583h-115v58h115v54q0 88 34 139t104 73.5t184 22.5h990q112 0 180.5 -22.5z" />
    <glyph glyph-name="uni093F0902.115" horiz-adv-x="600" 
 />
    <glyph glyph-name="uni093F0930094D.115" 
d="M1890 933v-60q-30 15 -67 15q-89 0 -89 -96v-170h-8v-22h-63v95q0 77 -28.5 115.5t-79.5 50t-138 11.5h-990q-88 0 -140 -11.5t-81.5 -50t-29.5 -115.5v-54h115v-58h-115v-583h-71v583h-115v58h115v54q0 88 34 139t104 73.5t184 22.5h990q102 0 166.5 -19.5t99.5 -63.5
q14 54 52.5 76t86.5 22q41 0 68 -12z" />
    <glyph glyph-name="uni093F0930094D0902.115" 
d="M1823 888q-89 0 -89 -96v-170h-8v-22h-63v95q0 77 -28.5 115.5t-79.5 50t-138 11.5h-990q-88 0 -140 -11.5t-81.5 -50t-29.5 -115.5v-54h115v-58h-115v-583h-71v583h-115v58h115v54q0 88 34 139t104 73.5t184 22.5h990q102 0 166.5 -19.5t99.5 -63.5q14 54 52.5 76
t86.5 22q41 0 68 -12v-60q-30 15 -67 15zM1897 758l-63 -61l-63 61l63 63z" />
    <glyph glyph-name="uni093F.116" 
d="M1647.5 907.5q68.5 -22.5 102 -73.5t34.5 -139v-95h-71v95q0 77 -28.5 115.5t-79.5 50t-138 11.5h-1040q-88 0 -140 -11.5t-81.5 -50t-29.5 -115.5v-54h115v-58h-115v-583h-71v583h-115v58h115v54q0 88 34 139t104 73.5t184 22.5h1040q112 0 180.5 -22.5z" />
    <glyph glyph-name="uni093F0902.116" horiz-adv-x="600" 
 />
    <glyph glyph-name="uni093F0930094D.116" 
d="M1940 933v-60q-30 15 -67 15q-89 0 -89 -96v-170h-8v-22h-63v95q0 77 -28.5 115.5t-79.5 50t-138 11.5h-1040q-88 0 -140 -11.5t-81.5 -50t-29.5 -115.5v-54h115v-58h-115v-583h-71v583h-115v58h115v54q0 88 34 139t104 73.5t184 22.5h1040q102 0 166.5 -19.5t99.5 -63.5
q14 54 52.5 76t86.5 22q41 0 68 -12z" />
    <glyph glyph-name="uni093F0930094D0902.116" 
d="M1873 888q-89 0 -89 -96v-170h-8v-22h-63v95q0 77 -28.5 115.5t-79.5 50t-138 11.5h-1040q-88 0 -140 -11.5t-81.5 -50t-29.5 -115.5v-54h115v-58h-115v-583h-71v583h-115v58h115v54q0 88 34 139t104 73.5t184 22.5h1040q102 0 166.5 -19.5t99.5 -63.5q14 54 52.5 76
t86.5 22q41 0 68 -12v-60q-30 15 -67 15zM1947 758l-63 -61l-63 61l63 63z" />
    <glyph glyph-name="uni093F.117" 
d="M1697.5 907.5q68.5 -22.5 102 -73.5t34.5 -139v-95h-71v95q0 77 -28.5 115.5t-79.5 50t-138 11.5h-1090q-88 0 -140 -11.5t-81.5 -50t-29.5 -115.5v-54h115v-58h-115v-583h-71v583h-115v58h115v54q0 88 34 139t104 73.5t184 22.5h1090q112 0 180.5 -22.5z" />
    <glyph glyph-name="uni093F0902.117" horiz-adv-x="600" 
 />
    <glyph glyph-name="uni093F0930094D.117" 
d="M1990 933v-60q-30 15 -67 15q-89 0 -89 -96v-170h-8v-22h-63v95q0 77 -28.5 115.5t-79.5 50t-138 11.5h-1090q-88 0 -140 -11.5t-81.5 -50t-29.5 -115.5v-54h115v-58h-115v-583h-71v583h-115v58h115v54q0 88 34 139t104 73.5t184 22.5h1090q102 0 166.5 -19.5t99.5 -63.5
q14 54 52.5 76t86.5 22q41 0 68 -12z" />
    <glyph glyph-name="uni093F0930094D0902.117" 
d="M1923 888q-89 0 -89 -96v-170h-8v-22h-63v95q0 77 -28.5 115.5t-79.5 50t-138 11.5h-1090q-88 0 -140 -11.5t-81.5 -50t-29.5 -115.5v-54h115v-58h-115v-583h-71v583h-115v58h115v54q0 88 34 139t104 73.5t184 22.5h1090q102 0 166.5 -19.5t99.5 -63.5q14 54 52.5 76
t86.5 22q41 0 68 -12v-60q-30 15 -67 15zM1997 758l-63 -61l-63 61l63 63z" />
    <glyph glyph-name="uni093F.118" 
d="M1747.5 907.5q68.5 -22.5 102 -73.5t34.5 -139v-95h-71v95q0 77 -28.5 115.5t-79.5 50t-138 11.5h-1140q-88 0 -140 -11.5t-81.5 -50t-29.5 -115.5v-54h115v-58h-115v-583h-71v583h-115v58h115v54q0 88 34 139t104 73.5t184 22.5h1140q112 0 180.5 -22.5z" />
    <glyph glyph-name="uni093F0902.118" horiz-adv-x="600" 
 />
    <glyph glyph-name="uni093F0930094D.118" 
d="M2040 933v-60q-30 15 -67 15q-89 0 -89 -96v-170h-8v-22h-63v95q0 77 -28.5 115.5t-79.5 50t-138 11.5h-1140q-88 0 -140 -11.5t-81.5 -50t-29.5 -115.5v-54h115v-58h-115v-583h-71v583h-115v58h115v54q0 88 34 139t104 73.5t184 22.5h1140q102 0 166.5 -19.5t99.5 -63.5
q14 54 52.5 76t86.5 22q41 0 68 -12z" />
    <glyph glyph-name="uni093F0930094D0902.118" 
d="M1973 888q-89 0 -89 -96v-170h-8v-22h-63v95q0 77 -28.5 115.5t-79.5 50t-138 11.5h-1140q-88 0 -140 -11.5t-81.5 -50t-29.5 -115.5v-54h115v-58h-115v-583h-71v583h-115v58h115v54q0 88 34 139t104 73.5t184 22.5h1140q102 0 166.5 -19.5t99.5 -63.5q14 54 52.5 76
t86.5 22q41 0 68 -12v-60q-30 15 -67 15zM2047 758l-63 -61l-63 61l63 63z" />
    <glyph glyph-name="uni093F.119" 
d="M1797.5 907.5q68.5 -22.5 102 -73.5t34.5 -139v-95h-71v95q0 77 -28.5 115.5t-79.5 50t-138 11.5h-1190q-88 0 -140 -11.5t-81.5 -50t-29.5 -115.5v-54h115v-58h-115v-583h-71v583h-115v58h115v54q0 88 34 139t104 73.5t184 22.5h1190q112 0 180.5 -22.5z" />
    <glyph glyph-name="uni093F0902.119" horiz-adv-x="600" 
 />
    <glyph glyph-name="uni093F0930094D.119" 
d="M2090 933v-60q-30 15 -67 15q-89 0 -89 -96v-170h-8v-22h-63v95q0 77 -28.5 115.5t-79.5 50t-138 11.5h-1190q-88 0 -140 -11.5t-81.5 -50t-29.5 -115.5v-54h115v-58h-115v-583h-71v583h-115v58h115v54q0 88 34 139t104 73.5t184 22.5h1190q102 0 166.5 -19.5t99.5 -63.5
q14 54 52.5 76t86.5 22q41 0 68 -12z" />
    <glyph glyph-name="uni093F0930094D0902.119" 
d="M2023 888q-89 0 -89 -96v-170h-8v-22h-63v95q0 77 -28.5 115.5t-79.5 50t-138 11.5h-1190q-88 0 -140 -11.5t-81.5 -50t-29.5 -115.5v-54h115v-58h-115v-583h-71v583h-115v58h115v54q0 88 34 139t104 73.5t184 22.5h1190q102 0 166.5 -19.5t99.5 -63.5q14 54 52.5 76
t86.5 22q41 0 68 -12v-60q-30 15 -67 15zM2097 758l-63 -61l-63 61l63 63z" />
    <glyph glyph-name="uni093F.120" 
d="M1847.5 907.5q68.5 -22.5 102 -73.5t34.5 -139v-95h-71v95q0 77 -28.5 115.5t-79.5 50t-138 11.5h-1240q-88 0 -140 -11.5t-81.5 -50t-29.5 -115.5v-54h115v-58h-115v-583h-71v583h-115v58h115v54q0 88 34 139t104 73.5t184 22.5h1240q112 0 180.5 -22.5z" />
    <glyph glyph-name="uni093F0902.120" horiz-adv-x="600" 
 />
    <glyph glyph-name="uni093F0930094D.120" 
d="M2140 933v-60q-30 15 -67 15q-89 0 -89 -96v-170h-8v-22h-63v95q0 77 -28.5 115.5t-79.5 50t-138 11.5h-1240q-88 0 -140 -11.5t-81.5 -50t-29.5 -115.5v-54h115v-58h-115v-583h-71v583h-115v58h115v54q0 88 34 139t104 73.5t184 22.5h1240q102 0 166.5 -19.5t99.5 -63.5
q14 54 52.5 76t86.5 22q41 0 68 -12z" />
    <glyph glyph-name="uni093F0930094D0902.120" 
d="M2073 888q-89 0 -89 -96v-170h-8v-22h-63v95q0 77 -28.5 115.5t-79.5 50t-138 11.5h-1240q-88 0 -140 -11.5t-81.5 -50t-29.5 -115.5v-54h115v-58h-115v-583h-71v583h-115v58h115v54q0 88 34 139t104 73.5t184 22.5h1240q102 0 166.5 -19.5t99.5 -63.5q14 54 52.5 76
t86.5 22q41 0 68 -12v-60q-30 15 -67 15zM2147 758l-63 -61l-63 61l63 63z" />
    <glyph glyph-name="uni093F.121" 
d="M1897.5 907.5q68.5 -22.5 102 -73.5t34.5 -139v-95h-71v95q0 77 -28.5 115.5t-79.5 50t-138 11.5h-1290q-88 0 -140 -11.5t-81.5 -50t-29.5 -115.5v-54h115v-58h-115v-583h-71v583h-115v58h115v54q0 88 34 139t104 73.5t184 22.5h1290q112 0 180.5 -22.5z" />
    <glyph glyph-name="uni093F0902.121" horiz-adv-x="600" 
 />
    <glyph glyph-name="uni093F0930094D.121" 
d="M2190 933v-60q-30 15 -67 15q-89 0 -89 -96v-170h-8v-22h-63v95q0 77 -28.5 115.5t-79.5 50t-138 11.5h-1290q-88 0 -140 -11.5t-81.5 -50t-29.5 -115.5v-54h115v-58h-115v-583h-71v583h-115v58h115v54q0 88 34 139t104 73.5t184 22.5h1290q102 0 166.5 -19.5t99.5 -63.5
q14 54 52.5 76t86.5 22q41 0 68 -12z" />
    <glyph glyph-name="uni093F0930094D0902.121" 
d="M2123 888q-89 0 -89 -96v-170h-8v-22h-63v95q0 77 -28.5 115.5t-79.5 50t-138 11.5h-1290q-88 0 -140 -11.5t-81.5 -50t-29.5 -115.5v-54h115v-58h-115v-583h-71v583h-115v58h115v54q0 88 34 139t104 73.5t184 22.5h1290q102 0 166.5 -19.5t99.5 -63.5q14 54 52.5 76
t86.5 22q41 0 68 -12v-60q-30 15 -67 15zM2197 758l-63 -61l-63 61l63 63z" />
    <glyph glyph-name="uni093F.01" 
d="M550 907.5q59 -22.5 87.5 -73.5t29.5 -139v-87h-70v87q0 77 -24 115.5t-65.5 50t-112.5 11.5h-16q-72 0 -113.5 -11.5t-65 -50t-23.5 -115.5v-54h115v-58h-115v-583h-71v583h-116v58h116v54q0 88 28.5 139t88 73.5t156.5 22.5h16q96 0 155 -22.5z" />
    <glyph glyph-name="uni093F.02" 
d="M606 907.5q63 -22.5 94 -73.5t32 -139v-87h-70v87q0 77 -26.5 115.5t-72.5 50t-124 11.5h-29q-83 0 -131 -11.5t-75 -50t-27 -115.5v-54h115v-58h-115v-583h-71v583h-116v58h116v54q0 88 32 139t98 73.5t174 22.5h29q104 0 167 -22.5z" />
    <glyph glyph-name="uni093F.03" 
d="M620.5 907.5q63.5 -22.5 94.5 -73.5t32 -139v-87h-70v87q0 77 -26.5 115.5t-72.5 50t-125 11.5h-36q-85 0 -135 -11.5t-77.5 -50t-27.5 -115.5v-54h115v-58h-115v-583h-71v583h-116v58h116v54q0 88 32.5 139t100.5 73.5t178 22.5h36q104 0 167.5 -22.5z" />
    <glyph glyph-name="uni093F.04" 
d="M646 907.5q66 -22.5 98 -74t32 -138.5v-87h-71v87q0 77 -27 115.5t-75 50t-130 11.5h-48q-88 0 -139 -11.5t-80 -50t-29 -115.5v-54h115v-58h-115v-583h-71v583h-116v58h116v54q0 88 33.5 139t103 73.5t182.5 22.5h48q107 0 173 -22.5z" />
    <glyph glyph-name="uni093F.05" 
d="M653.5 907.5q66.5 -22.5 99 -73.5t33.5 -139v-95h-71v95q0 77 -27.5 115.5t-76.5 50t-133 11.5h-60q-85 0 -135.5 -11.5t-78.5 -50t-28 -115.5v-54h115v-58h-115v-583h-71v583h-115v58h115v54q0 88 33 139t101 73.5t179 22.5h60q109 0 175.5 -22.5z" />
    <glyph glyph-name="uni093F.06" 
d="M747.5 907.5q68.5 -22.5 102 -73.5t34.5 -139v-95h-71v95q0 77 -28.5 115.5t-79.5 50t-138 11.5h-140q-88 0 -140 -11.5t-81.5 -50t-29.5 -115.5v-54h115v-58h-115v-583h-71v583h-115v58h115v54q0 88 34 139t104 73.5t184 22.5h140q112 0 180.5 -22.5z" />
    <glyph glyph-name="uni093F.07" 
d="M789.5 907.5q68.5 -22.5 102 -73.5t34.5 -139v-95h-71v95q0 77 -28.5 115.5t-79.5 50t-138 11.5h-182q-88 0 -140 -11.5t-81.5 -50t-29.5 -115.5v-54h115v-58h-115v-583h-71v583h-115v58h115v54q0 88 34 139t104 73.5t184 22.5h182q112 0 180.5 -22.5z" />
    <glyph glyph-name="uni093F.10" 
d="M866.5 907.5q68.5 -22.5 102 -73.5t34.5 -139v-95h-71v95q0 77 -28.5 115.5t-79.5 50t-138 11.5h-259q-88 0 -140 -11.5t-81.5 -50t-29.5 -115.5v-54h115v-58h-115v-583h-71v583h-115v58h115v54q0 88 34 139t104 73.5t184 22.5h259q112 0 180.5 -22.5z" />
    <glyph glyph-name="uni093F0902.01" 
d="M550 907.5q59 -22.5 87.5 -73.5t29.5 -139v-87h-70v87q0 77 -24 115.5t-65.5 50t-112.5 11.5h-16q-72 0 -113.5 -11.5t-65 -50t-23.5 -115.5v-54h115v-58h-115v-583h-71v583h-116v58h116v54q0 88 28.5 139t88 73.5t156.5 22.5h16q96 0 155 -22.5zM831 742l-62 -62l-63 62
l63 62z" />
    <glyph glyph-name="uni093F0902.02" 
d="M600 907.5q63 -22.5 94 -73.5t32 -139v-87h-70v87q0 77 -26.5 115.5t-72.5 50t-124 11.5h-23q-83 0 -131 -11.5t-75 -50t-27 -115.5v-54h115v-58h-115v-583h-71v583h-116v58h116v54q0 88 32 139t98 73.5t174 22.5h23q104 0 167 -22.5zM891 742l-63 -62l-62 62l62 62z" />
    <glyph glyph-name="uni093F0902.03" 
d="M612.5 907.5q63.5 -22.5 95 -73.5t32.5 -139v-87h-71v87q0 77 -26.5 115.5t-72.5 50t-125 11.5h-28q-85 0 -135 -11.5t-77.5 -50t-27.5 -115.5v-54h115v-58h-115v-583h-71v583h-116v58h116v54q0 88 32.5 139t100.5 73.5t178 22.5h28q104 0 167.5 -22.5zM906 742l-63 -62
l-62 62l62 62z" />
    <glyph glyph-name="uni093F0902.04" 
d="M626 907.5q66 -22.5 98 -74t32 -138.5v-87h-70v87q0 77 -27 115.5t-75 50t-130 11.5h-29q-88 0 -139 -11.5t-80 -50t-29 -115.5v-54h115v-58h-115v-583h-71v583h-116v58h116v54q0 88 33.5 139t103 73.5t182.5 22.5h29q106 0 172 -22.5zM921 742l-63 -62l-62 62l62 62z
" />
    <glyph glyph-name="uni093F0902.05" 
d="M649 907.5q66 -22.5 98.5 -73.5t33.5 -139v-95h-70v95q0 77 -27.5 115.5t-77 50t-132.5 11.5h-56q-85 0 -135.5 -11.5t-78.5 -50t-28 -115.5v-54h115v-58h-115v-583h-71v583h-115v58h115v54q0 88 33 139t101 73.5t179 22.5h56q109 0 175 -22.5zM944 750l-62 -62l-63 62
l63 63z" />
    <glyph glyph-name="uni093F0902.06" 
d="M741.5 907.5q68.5 -22.5 102 -73.5t34.5 -139v-95h-71v95q0 77 -28.5 115.5t-79.5 50t-138 11.5h-134q-88 0 -140 -11.5t-81.5 -50t-29.5 -115.5v-54h115v-58h-115v-583h-71v583h-115v58h115v54q0 88 34 139t104 73.5t184 22.5h134q112 0 180.5 -22.5zM1043 742l-63 -62
l-63 62l63 62z" />
    <glyph glyph-name="uni093F0902.07" 
d="M789.5 907.5q68.5 -22.5 102 -73.5t34.5 -139v-95h-71v95q0 77 -28.5 115.5t-79.5 50t-138 11.5h-182q-88 0 -140 -11.5t-81.5 -50t-29.5 -115.5v-54h115v-58h-115v-583h-71v583h-115v58h115v54q0 88 34 139t104 73.5t184 22.5h182q112 0 180.5 -22.5zM1090 742l-63 -62
l-62 62l62 62z" />
    <glyph glyph-name="uni093F0902.10" 
d="M833.5 907.5q68.5 -22.5 102 -73.5t34.5 -139v-95h-71v95q0 77 -28.5 115.5t-79.5 50t-138 11.5h-226q-88 0 -140 -11.5t-81.5 -50t-29.5 -115.5v-54h115v-58h-115v-583h-71v583h-115v58h115v54q0 88 34 139t104 73.5t184 22.5h226q112 0 180.5 -22.5zM1134 742l-62 -62
l-63 62l63 62z" />
    <glyph glyph-name="uni093F0930094D.01" 
d="M823 933v-60q-30 15 -67 15q-89 0 -89 -96v-170h-8v-14h-62v87q0 77 -24 115.5t-65.5 50t-112.5 11.5h-16q-72 0 -113.5 -11.5t-65 -50t-23.5 -115.5v-54h115v-58h-115v-583h-71v583h-116v58h116v54q0 88 28.5 139t88 73.5t156.5 22.5h16q84 0 138.5 -18.5t84.5 -58.5
q15 51 53 71.5t84 20.5q42 0 68 -12z" />
    <glyph glyph-name="uni093F0930094D.02" 
d="M888 933v-60q-28 15 -67 15q-89 0 -89 -96v-170h-8v-14h-62v87q0 77 -26.5 115.5t-72.5 50t-124 11.5h-29q-82 0 -130.5 -11.5t-75.5 -50t-27 -115.5v-54h115v-58h-115v-583h-71v583h-116v58h116v54q0 88 32 139t98 73.5t174 22.5h29q92 0 151.5 -18.5t91.5 -61.5
q14 53 52 74t86 21q42 0 68 -12z" />
    <glyph glyph-name="uni093F0930094D.03" 
d="M903 933v-60q-30 15 -67 15q-89 0 -89 -96v-170h-8v-14h-62v87q0 77 -26.5 115.5t-72.5 50t-125 11.5h-36q-85 0 -135 -11.5t-77.5 -50t-27.5 -115.5v-54h115v-58h-115v-583h-71v583h-116v58h116v54q0 88 32.5 139t100.5 73.5t178 22.5h36q93 0 152.5 -19t91.5 -61
q14 53 52 74t86 21q42 0 68 -12z" />
    <glyph glyph-name="uni093F0930094D.04" 
d="M931 933v-60q-28 15 -67 15q-88 0 -88 -96v-170h-9v-14h-62v87q0 77 -27 115.5t-75 50t-130 11.5h-48q-88 0 -139 -11.5t-80 -50t-29 -115.5v-54h115v-58h-115v-583h-71v583h-116v58h116v54q0 88 33.5 139t103 73.5t182.5 22.5h48q96 0 157.5 -19t94.5 -61q14 53 52.5 74
t86.5 21q41 0 67 -12z" />
    <glyph glyph-name="uni093F0930094D.05" 
d="M942 933v-60q-30 15 -67 15q-89 0 -89 -96v-170h-8v-22h-63v95q0 77 -27.5 115.5t-76.5 50t-133 11.5h-60q-85 0 -135.5 -11.5t-78.5 -50t-28 -115.5v-54h115v-58h-115v-583h-71v583h-115v58h115v54q0 88 33 139t101 73.5t179 22.5h60q98 0 160.5 -19.5t96.5 -62.5
q14 54 53 75.5t86 21.5q41 0 68 -12z" />
    <glyph glyph-name="uni093F0930094D.06" 
d="M1040 933v-60q-30 15 -67 15q-89 0 -89 -96v-170h-8v-22h-63v95q0 77 -28.5 115.5t-79.5 50t-138 11.5h-140q-88 0 -140 -11.5t-81.5 -50t-29.5 -115.5v-54h115v-58h-115v-583h-71v583h-115v58h115v54q0 88 34 139t104 73.5t184 22.5h140q102 0 166.5 -19.5t99.5 -63.5
q14 54 52.5 76t86.5 22q41 0 68 -12z" />
    <glyph glyph-name="uni093F0930094D.07" 
d="M1081 933v-60q-28 15 -67 15q-88 0 -88 -96v-170h-9v-22h-62v95q0 77 -28.5 115.5t-79.5 50t-138 11.5h-182q-88 0 -140 -11.5t-81.5 -50t-29.5 -115.5v-54h115v-58h-115v-583h-71v583h-115v58h115v54q0 88 34 139t104 73.5t184 22.5h182q102 0 166.5 -19.5t98.5 -63.5
q14 54 52.5 76t86.5 22q42 0 68 -12z" />
    <glyph glyph-name="uni093F0930094D.10" 
d="M1158 933v-60q-28 15 -67 15q-88 0 -88 -96v-170h-9v-22h-62v95q0 77 -28.5 115.5t-79.5 50t-138 11.5h-259q-88 0 -140 -11.5t-81.5 -50t-29.5 -115.5v-54h115v-58h-115v-583h-71v583h-115v58h115v54q0 88 34 139t104 73.5t184 22.5h259q102 0 166.5 -19.5t99.5 -63.5
q14 54 52.5 76t86.5 22q41 0 67 -12z" />
    <glyph glyph-name="uni093F0930094D0902.01" 
d="M756 888q-89 0 -89 -96v-170h-8v-14h-62v87q0 77 -24 115.5t-65.5 50t-112.5 11.5h-16q-72 0 -113.5 -11.5t-65 -50t-23.5 -115.5v-54h115v-58h-115v-583h-71v583h-116v58h116v54q0 88 28.5 139t88 73.5t156.5 22.5h16q84 0 138.5 -18.5t84.5 -58.5q15 51 53 71.5
t84 20.5q42 0 68 -12v-60q-30 15 -67 15zM829 758l-62 -61l-63 61l63 63z" />
    <glyph glyph-name="uni093F0930094D0902.02" 
d="M821 888q-89 0 -89 -96v-170h-8v-14h-62v87q0 77 -26.5 115.5t-72.5 50t-124 11.5h-29q-82 0 -130.5 -11.5t-75.5 -50t-27 -115.5v-54h115v-58h-115v-583h-71v583h-116v58h116v54q0 88 32 139t98 73.5t174 22.5h29q92 0 151.5 -18.5t91.5 -61.5q14 53 52 74t86 21
q42 0 68 -12v-60q-28 15 -67 15zM895 758l-62 -61l-63 61l63 63z" />
    <glyph glyph-name="uni093F0930094D0902.03" 
d="M836 888q-89 0 -89 -96v-170h-8v-14h-62v87q0 77 -26.5 115.5t-72.5 50t-125 11.5h-36q-85 0 -135 -11.5t-77.5 -50t-27.5 -115.5v-54h115v-58h-115v-583h-71v583h-116v58h116v54q0 88 32.5 139t100.5 73.5t178 22.5h36q93 0 152.5 -19t91.5 -61q14 53 52 74t86 21
q42 0 68 -12v-60q-30 15 -67 15zM910 758l-63 -61l-62 61l62 63z" />
    <glyph glyph-name="uni093F0930094D0902.04" 
d="M864 888q-88 0 -88 -96v-170h-9v-14h-62v87q0 77 -27 115.5t-75 50t-130 11.5h-48q-88 0 -139 -11.5t-80 -50t-29 -115.5v-54h115v-58h-115v-583h-71v583h-116v58h116v54q0 88 33.5 139t103 73.5t182.5 22.5h48q96 0 157.5 -19t94.5 -61q14 53 52.5 74t86.5 21
q41 0 67 -12v-60q-28 15 -67 15zM939 758l-63 -61l-63 61l63 63z" />
    <glyph glyph-name="uni093F0930094D0902.05" 
d="M875 888q-89 0 -89 -96v-170h-8v-22h-63v95q0 77 -27.5 115.5t-76.5 50t-133 11.5h-60q-85 0 -135.5 -11.5t-78.5 -50t-28 -115.5v-54h115v-58h-115v-583h-71v583h-115v58h115v54q0 88 33 139t101 73.5t179 22.5h60q98 0 160.5 -19.5t96.5 -62.5q14 54 53 75.5t86 21.5
q41 0 68 -12v-60q-30 15 -67 15zM947 758l-63 -61l-62 61l62 63z" />
    <glyph glyph-name="uni093F0930094D0902.06" 
d="M973 888q-89 0 -89 -96v-170h-8v-22h-63v95q0 77 -28.5 115.5t-79.5 50t-138 11.5h-140q-88 0 -140 -11.5t-81.5 -50t-29.5 -115.5v-54h115v-58h-115v-583h-71v583h-115v58h115v54q0 88 34 139t104 73.5t184 22.5h140q102 0 166.5 -19.5t99.5 -63.5q14 54 52.5 76
t86.5 22q41 0 68 -12v-60q-30 15 -67 15zM1047 758l-63 -61l-62 61l62 63z" />
    <glyph glyph-name="uni093F0930094D0902.07" 
d="M1014 888q-88 0 -88 -96v-170h-9v-22h-62v95q0 77 -28.5 115.5t-79.5 50t-138 11.5h-182q-88 0 -140 -11.5t-81.5 -50t-29.5 -115.5v-54h115v-58h-115v-583h-71v583h-115v58h115v54q0 88 34 139t104 73.5t184 22.5h182q102 0 166.5 -19.5t98.5 -63.5q14 54 52.5 76
t86.5 22q42 0 68 -12v-60q-28 15 -67 15zM1088 758l-62 -61l-63 61l63 63z" />
    <glyph glyph-name="uni093F0930094D0902.10" 
d="M1091 888q-88 0 -88 -96v-170h-9v-22h-62v95q0 77 -28.5 115.5t-79.5 50t-138 11.5h-259q-88 0 -140 -11.5t-81.5 -50t-29.5 -115.5v-54h115v-58h-115v-583h-71v583h-115v58h115v54q0 88 34 139t104 73.5t184 22.5h259q102 0 166.5 -19.5t99.5 -63.5q14 54 52.5 76
t86.5 22q41 0 67 -12v-60q-28 15 -67 15zM1166 758l-63 -61l-63 61l63 63z" />
    <glyph glyph-name="uni0940.05" 
d="M291 583h-115v-583h-71v583h-115v58h115v54q0 77 -16.5 115.5t-46 50t-79.5 11.5h-17q-48 0 -76 -11.5t-44 -50t-16 -115.5v-112h-71v112q0 88 22 139t67 73.5t118 22.5h17q76 0 122.5 -22.5t68.5 -73.5t22 -139v-54h115v-58z" />
    <glyph glyph-name="iiMatradeva_anusvara.05" 
d="M0 0zM291 583h-115v-583h-71v583h-115v58h115v54q0 77 -16.5 115.5t-46 50t-79.5 11.5h-17q-48 0 -76 -11.5t-44 -50t-16 -115.5v-112h-71v112q0 88 22 139t67 73.5t118 22.5h17q76 0 122.5 -22.5t68.5 -73.5t22 -139v-54h115v-58zM209 742l63 62l63 -62l-63 -62z" />
    <glyph glyph-name="uni0940.10" 
d="M291 583h-115v-583h-71v583h-115v58h115v54q0 77 -26.5 115.5t-74.5 50t-129 11.5h-17q-79 0 -125.5 -11.5t-72.5 -50t-26 -115.5v-112h-71v112q0 88 31 139t95.5 73.5t168.5 22.5h17q107 0 172.5 -22.5t97 -73.5t31.5 -139v-54h115v-58z" />
    <glyph glyph-name="uni09400902.10" 
d="M176 641h115v-58h-115v-583h-71v583h-115v58h115v54q0 77 -26.5 115.5t-74.5 50t-129 11.5h-17q-79 0 -125.5 -11.5t-72.5 -50t-26 -115.5v-112h-71v112q0 88 31 139t95.5 73.5t168.5 22.5h17q107 0 172.5 -22.5t97 -73.5t31.5 -139v-54zM276 680l-63 62l63 62l62 -62z
" />
    <glyph glyph-name="uni09400930094D.05" 
d="M176 783v-142h115v-58h-115v-583h-71v583h-115v58h115v54q0 77 -16.5 115.5t-46 50t-79.5 11.5h-17q-48 0 -76 -11.5t-44 -50t-16 -115.5v-112h-71v112q0 88 22 139t67 73.5t118 22.5h17q64 0 106 -17t65 -55q17 40 51 56t74 16q41 0 68 -12v-60q-34 15 -66 15
q-85 0 -85 -90z" />
    <glyph glyph-name="uni09400930094D.10" 
d="M176 792v-151h115v-58h-115v-583h-71v583h-115v58h115v54q0 77 -26.5 115.5t-74.5 50t-129 11.5h-17q-79 0 -125.5 -11.5t-72.5 -50t-26 -115.5v-112h-71v112q0 88 31 139t95.5 73.5t168.5 22.5h17q96 0 157 -18t95 -58q15 50 53 70.5t84 20.5q41 0 67 -12v-60
q-28 15 -67 15q-88 0 -88 -96z" />
    <glyph glyph-name="uni09400930094D0902.05" 
d="M176 641h115v-58h-115v-583h-71v583h-115v58h115v54q0 77 -16.5 115.5t-46 50t-79.5 11.5h-17q-48 0 -76 -11.5t-44 -50t-16 -115.5v-112h-71v112q0 88 22 139t67 73.5t118 22.5h17q61 0 102 -15.5t65 -50.5q17 45 53.5 63t80.5 18q41 0 67 -12v-60q-28 15 -67 15
q-88 0 -88 -96v-151zM272 821l63 -63l-63 -61l-62 61z" />
    <glyph glyph-name="uni09400930094D0902.10" 
d="M176 641h115v-58h-115v-583h-71v583h-115v58h115v54q0 77 -26.5 115.5t-74.5 50t-129 11.5h-17q-79 0 -125.5 -11.5t-72.5 -50t-26 -115.5v-112h-71v112q0 88 31 139t95.5 73.5t168.5 22.5h17q96 0 157 -18t95 -58q15 50 53 70.5t84 20.5q41 0 67 -12v-60q-28 15 -67 15
q-88 0 -88 -96v-151zM276 821l62 -63l-62 -61l-63 61z" />
    <glyph glyph-name="uni0932.loclMAR" horiz-adv-x="772" 
d="M577 583v-155q72 -11 109 -62.5t37 -131.5q0 -99 -58.5 -166.5t-194.5 -67.5h-18v57h18q103 0 141.5 49t41.5 128q-2 67 -30 103t-83 36q-54 0 -82 -36t-30 -103v-36h-71v36q-1 66 -29 102.5t-82 36.5q-55 0 -83.5 -36.5t-29.5 -102.5q2 -79 41 -128t141 -49h19v-57h-19
q-135 0 -194 67.5t-59 166.5q0 89 46.5 142.5t133.5 53.5q106 0 151 -78q37 64 114 75v156h-517v58h792v-58h-205z" />
    <glyph glyph-name="uni0936.loclMAR" horiz-adv-x="732" 
d="M742 583h-115v-583h-71v583h-295l19 -73q67 -8 97.5 -52t30.5 -124q-1 -85 -61.5 -140t-166.5 -61l129 -148l-47 -40l-161 187h-39v57h95q86 0 132.5 38.5t47.5 106.5q0 70 -20 96.5t-72 26.5q-46 0 -68.5 -27.5t-23.5 -93.5v-38h-71v41q1 81 35.5 124.5t108.5 48.5
l-17 65l8 6h-227v58h752v-58z" />
    <glyph glyph-name="uni091D.loclNEP" horiz-adv-x="897" 
d="M531 583v-174q50 27 119 27h16q98 -1 143.5 -35t45.5 -119q0 -84 -46 -119t-142 -35h-12q-15 0 -32 1.5t-28 3.5v58q30 -5 58 -5h12q61 0 90 20t29 76q0 41 -13.5 61.5t-39.5 27.5t-69 7h-15q-68 0 -116 -29v-349h-71v254h-228v-94h-70v396q0 22 -7.5 31t-27.5 9
q-19 0 -26.5 -9t-7.5 -31v-44h-67v44q0 47 24.5 71.5t78.5 24.5q55 0 79 -24t24 -72v-245h228v272h-104v58h551v-58h-376z" />
    <glyph glyph-name="uni0979.loclNEP" horiz-adv-x="700" 
d="M325 583v-149q31 11 58.5 16t64.5 5q106 0 158.5 -49t52.5 -138q-1 -95 -51.5 -149t-170.5 -54h-11v-86h-71v234h71v-91h8q65 0 98.5 18.5t44 49t11.5 79.5q0 67 -33.5 98t-106.5 31q-36 0 -62.5 -5.5t-60.5 -19.5v-12q0 -82 -49 -115.5t-152 -33.5h-78v58h78q68 0 99 18
t31 73v222h-264v58h720v-58h-385z" />
    <glyph glyph-name="uni0928.post" horiz-adv-x="0" 
d="M-426.5 45q-30.5 25 -30.5 62q0 42 57 79l246 156l31 -48l-239 -152q-13 -8 -19 -15t-6 -15q0 -15 14 -22.5t38 -7.5q16 0 24 1l4 -59q-17 -4 -41 -4q-48 0 -78.5 25z" />
    <glyph glyph-name="uni092F.post" horiz-adv-x="800" 
d="M810 641v-58h-115v-583h-70v124q-33 -17 -70 -25.5t-66 -8.5q-83 0 -133 33.5t-86 121.5q63 18 88 39t25 53q0 35 -42 52.5t-137 17.5h-105v58h105q140 0 194.5 -32.5t54.5 -91.5q0 -45 -23.5 -74.5t-74.5 -51.5q22 -40 56 -53.5t80 -13.5q67 0 134 40v395h-635v58h820z
" />
    <glyph glyph-name="uni0930.post" horiz-adv-x="0" 
d="M-488 45l336 293l42 -47l-335 -294z" />
    <glyph glyph-name="uni0935.post" horiz-adv-x="0" 
d="M-102 160v-416h-70v84q-42 -15 -86 -15h-16q-149 0 -149 118q0 60 36.5 89t94.5 29h12q29 0 51 -4v-56q-23 4 -48 4h-12q-65 0 -65 -62q0 -36 20.5 -49t62.5 -13h16q48 0 83 16v275h70z" />
    <glyph glyph-name="uni0915094D0915" horiz-adv-x="1373" 
d="M1007 583v-174q52 27 120 27h15q98 -1 143.5 -35t45.5 -119q0 -84 -45.5 -119t-141.5 -35h-12q-15 0 -32 1.5t-28 3.5v58q28 -5 58 -5h12q60 0 89 20t29 76q0 41 -13.5 61.5t-39 27.5t-68.5 7h-16q-68 0 -116 -29v-349h-71v155q-52 -27 -119 -27h-16q-90 1 -135.5 29
t-52.5 97h-176v-254h-71v155q-52 -27 -119 -27h-16q-98 1 -143.5 35t-45.5 119q0 84 45.5 119t142.5 35h12q15 0 32 -1.5t28 -3.5v-58q-30 5 -58 5h-12q-61 0 -90 -20t-29 -76q0 -40 13.5 -60.5t39 -27.5t69.5 -8h15q68 0 116 28v369h-376v58h570h823v-58h-376zM936 214v369
h-376h-123v-272h177q7 68 52.5 96.5t133.5 28.5h12q15 0 32 -1.5t28 -3.5v-58q-30 5 -58 5h-12q-61 0 -90 -20t-29 -76q0 -40 13.5 -60.5t39.5 -27.5t69 -8h15q68 0 116 28z" />
    <glyph glyph-name="uni0915094D0924" horiz-adv-x="825" 
d="M459 583v-174q52 27 120 27h16q98 -1 143 -35t45 -119q0 -84 -45.5 -119t-141.5 -35h-12q-15 0 -32 1.5t-28 3.5v58q28 -5 58 -5h12q61 0 90 20t29 76q0 41 -13.5 61.5t-39.5 27.5t-69 7h-16q-33 0 -60.5 -6.5t-55.5 -22.5v-349h-70v399h-114q-36 0 -58 -14t-33.5 -51
t-12.5 -106q1 -97 30 -134t88 -37h13v-57h-13q-92 0 -140.5 53.5t-48.5 173.5q0 117 43 172h-113v57h359v127h-399v58h845v-58h-376z" />
    <glyph glyph-name="uni0915094D0924094D" horiz-adv-x="591" 
d="M662 254h-203v-254h-70v399h-114q-36 0 -58 -14t-33.5 -51t-12.5 -106q1 -97 30 -134t88 -37h13v-57h-13q-92 0 -140.5 53.5t-48.5 173.5q0 117 43 172h-113v57h359v127h-399v58h611v-58h-142v-272h203v-57z" />
    <glyph glyph-name="uni0915094D0930" horiz-adv-x="796" 
d="M437 583v-174q50 27 119 27h16q98 -1 143.5 -35t45.5 -119q0 -84 -45.5 -119t-142.5 -35h-12q-15 0 -32 1.5t-28 3.5v58q30 -5 58 -5h12q61 0 90 20t29 76q0 41 -13.5 61.5t-39 27.5t-69.5 7h-15q-68 0 -116 -29v-349h-71v155l-267 -181l-36 52l163 102q-96 2 -140 35.5
t-44 118.5q0 84 45.5 119t142.5 35h12q15 0 32 -1.5t28 -3.5v-58q-30 5 -58 5h-12q-61 0 -90 -20t-29 -76q0 -40 13.5 -60.5t39 -27.5t69.5 -8h15q68 0 116 28v369h-376v58h823v-58h-376z" />
    <glyph glyph-name="uni0915094D0932" horiz-adv-x="1349" 
d="M1359 583h-115l-2 -583h-71l1 368q-25 15 -60 15q-55 0 -83.5 -37t-30.5 -104v-36h-8v-8h-62v36q-2 67 -30 103t-82 36q-55 0 -83 -36t-30 -103q2 -79 41 -128t141 -49h19v-57h-19q-135 0 -194 67.5t-59 166.5q0 13 1 20h-196v-254h-71v155q-52 -27 -119 -27h-16
q-98 1 -143.5 35t-45.5 119q0 84 45.5 119t142.5 35h12q15 0 32 -1.5t28 -3.5v-58q-30 5 -58 5h-12q-61 0 -90 -20t-29 -76q0 -40 13.5 -60.5t39 -27.5t69.5 -8h15q68 0 116 28v369h-376v58h1369v-58zM1172 431l1 152h-613h-123v-272h204v-5q16 58 59.5 91t111.5 33
q102 0 148 -72q21 39 59 60.5t92 21.5q34 0 61 -9z" />
    <glyph glyph-name="uni0915094D0937" horiz-adv-x="758" 
d="M320 181h71v-236h-71v89q-22 -3 -48 -3h-8q-108 0 -159.5 34t-51.5 116q0 44 20 76t49 53t77 48q43 24 68.5 42t42.5 43t17 59q0 95 -84 95q-43 0 -63.5 -26t-20.5 -70v-44h-70v45q0 72 40.5 111.5t113.5 39.5t114 -39t41 -112q0 -46 -21 -79t-50.5 -55.5t-79.5 -51.5
q-42 -24 -66 -41.5t-40.5 -40.5t-16.5 -53q0 -54 35 -73.5t109 -19.5h8q23 0 44 3v90zM768 641v-58h-115v-583h-70v270h-213v57h213v256h-125v58h310z" />
    <glyph glyph-name="uni0915094D0937094D" horiz-adv-x="596" 
d="M377 423q-21 -33 -50.5 -55.5t-79.5 -51.5q-42 -24 -66 -41.5t-40.5 -40.5t-16.5 -53q0 -54 35 -73.5t109 -19.5h8q23 0 44 3v90h71v-236h-71v89q-22 -3 -48 -3h-8q-108 0 -159.5 34t-51.5 116q0 44 20 76t49 53t77 48q43 24 68.5 42t42.5 43t17 59q0 95 -84 95
q-43 0 -63.5 -26t-20.5 -70v-44h-70v45q0 72 40.5 111.5t113.5 39.5t114 -39t41 -112q0 -46 -21 -79zM667 310v-58h-244v58h244z" />
    <glyph glyph-name="uni0915094D0937094D0930" horiz-adv-x="832" 
d="M320 181h71v-236h-71v89q-22 -3 -48 -3h-8q-108 0 -159.5 34t-51.5 116q0 44 20 76t49 53t77 48q43 24 68.5 42t42.5 43t17 59q0 95 -84 95q-43 0 -63.5 -26t-20.5 -70v-44h-70v45q0 72 40.5 111.5t113.5 39.5t114 -39t41 -112q0 -46 -21 -79t-50.5 -55.5t-79.5 -51.5
q-42 -24 -66 -41.5t-40.5 -40.5t-16.5 -53q0 -54 35 -73.5t109 -19.5h8q23 0 44 3v90zM842 641v-58h-115v-583h-71v213l-176 -229l-51 40l219 273h-278v57h286v229h-197v58h383z" />
    <glyph glyph-name="uni0915094D0937094D0072" horiz-adv-x="596" 
d="M320 181h71v-236h-71v89q-22 -3 -48 -3h-8q-108 0 -159.5 34t-51.5 116q0 44 20 76t49 53t77 48q43 24 68.5 42t42.5 43t17 59q0 95 -84 95q-43 0 -63.5 -26t-20.5 -70v-44h-70v45q0 72 40.5 111.5t113.5 39.5t114 -39t41 -112q0 -46 -21 -79t-50.5 -55.5t-79.5 -51.5
q-42 -24 -66 -41.5t-40.5 -40.5t-16.5 -53q0 -54 35 -73.5t109 -19.5h8q23 0 44 3v90zM671 354v-116l-191 -254l-51 39l213 274h-272v57h301z" />
    <glyph glyph-name="uni0915094D0072" horiz-adv-x="567" 
d="M641 254h-204v-254h-71v155l-267 -181l-36 51l164 103q-96 2 -140.5 36t-44.5 118t45.5 119t142.5 35h12q15 0 32 -1.5t28 -3.5v-58q-30 5 -58 5h-12q-61 0 -90 -20t-29 -76q0 -40 13.5 -60.5t39 -27.5t69.5 -8h15q68 0 116 28v369h-376v58h590v-58h-143v-272h204v-57z
" />
    <glyph glyph-name="uni0916094D0930" horiz-adv-x="827" 
d="M837 583h-115v-583h-71v179l-204 -198l-43 46l155 141h-18q-157 0 -157 134q0 68 39.5 101t99.5 33h12q25 0 52 -5v-57q-24 4 -47 4h-12q-33 0 -53.5 -16.5t-20.5 -59.5q0 -46 22 -61t71 -15h17q49 0 87 15v342h-314v-188q0 -80 -47 -112t-147 -32h-6v-56
q0 -78 33.5 -108t115.5 -30h70v-57h-70q-106 0 -162.5 41.5t-56.5 153.5v234h70v-120h6q44 0 70 6t40 24.5t14 55.5v188h-277v58h847v-58z" />
    <glyph glyph-name="uni0916094D0072" horiz-adv-x="595" 
d="M170.5 87q33.5 -30 115.5 -30h70v-57h-70q-106 0 -162.5 41.5t-56.5 153.5v234h70v-120h6q44 0 70 6t40 24.5t14 55.5v188h-277v58h615v-58h-268v-188q0 -80 -47 -112t-147 -32h-6v-56q0 -78 33.5 -108zM678 195l-2 -1l2 -1l-231 -212l-43 46l167 142q-4 -1 -12 -1h-18
q-157 0 -157 134q0 68 39.5 101t99.5 33h12q25 0 52 -5v-57q-24 4 -47 4h-12q-33 0 -53.5 -16.5t-20.5 -59.5q0 -46 22 -61t71 -15h17q67 0 114 29v-60z" />
    <glyph glyph-name="uni0917094D0928" horiz-adv-x="612" 
d="M622 641v-58h-115v-583h-71v257l-181 -115q-13 -8 -19 -15t-6 -15q0 -15 14 -22.5t39 -7.5q14 0 21 1l4 -59q-16 -4 -39 -4q-48 0 -78.5 25t-30.5 62q0 42 57 79l219 138v259h-201l1 -233q0 -103 -83 -103q-38 0 -66.5 22.5t-48.5 69.5l55 28q14 -31 26 -47t26 -16
q12 0 16 10.5t4 35.5v233h-175v58h632z" />
    <glyph glyph-name="uni0917094D0930" horiz-adv-x="612" 
d="M622 641v-58h-115v-583h-71v243l-281 -246l-43 48l324 282v256h-201l1 -233q0 -103 -83 -103q-38 0 -66.5 22.5t-48.5 69.5l55 28q14 -31 26 -47t26 -16q12 0 16 10.5t4 35.5v233h-175v58h632z" />
    <glyph glyph-name="uni0918094D0930" horiz-adv-x="591" 
d="M608 641v-58h-115v-583h-71v149l-261 -175l-36 51l162 100h-3q-96 1 -141 34.5t-45 115.5q0 84 53 119q-45 14 -67 44.5t-22 80.5q0 39 11 64h-83v58h618zM182.5 217q13.5 -20 38 -26.5t66.5 -7.5h18q68 0 117 30v370h-273q-16 -20 -16 -61q1 -56 37 -74.5t117 -18.5h23
v-6h9v-51h-32q-61 0 -89.5 -19.5t-28.5 -75.5q0 -40 13.5 -60z" />
    <glyph glyph-name="uni0918094D0072" horiz-adv-x="374" 
d="M390.5 197q39.5 14 76.5 53v-76l-308 -210l-38 50l175 111h-12q-96 1 -141 34.5t-45 115.5q0 84 53 119q-45 14 -67 44.5t-22 80.5q0 39 11 64h-83v58h394v-58h-235q-16 -20 -16 -61q1 -56 37 -74.5t117 -18.5h23v-6h9v-51h-32q-61 0 -89.5 -19.5t-28.5 -75.5
q0 -40 13.5 -60t38 -26.5t66.5 -7.5h18q46 0 85.5 14z" />
    <glyph glyph-name="uni0919094D0915" horiz-adv-x="633" 
d="M643 641v-58h-232v-137h-6v-17h-190q-41 0 -60.5 -9.5t-19.5 -34.5q0 -15 7.5 -27.5t18.5 -19.5h142q83 0 127.5 -29.5t44.5 -89.5q0 -50 -35 -79.5t-100 -37.5v-64q39 14 86 14h16q72 0 110.5 -27.5t38.5 -90.5q0 -59 -37 -88t-94 -29h-12q-30 0 -52 4v55q24 -4 48 -4
h12q66 0 66 62q0 37 -20.5 50t-63.5 13h-15q-45 0 -83 -16v-237h-71v87q-38 -14 -86 -14h-15q-72 0 -110.5 27.5t-38.5 89.5q0 60 36.5 89t94.5 29h12q29 0 51 -4v-55q-24 4 -48 4h-12q-65 0 -65 -63q0 -36 20.5 -49t62.5 -13h16q44 0 82 16v212q-74 1 -131.5 17t-107.5 48
l28 53q50 -32 102 -46.5t118 -14.5h16q53 0 82 15t29 44q0 35 -25.5 49.5t-76.5 14.5h-177q-21 16 -41.5 48t-20.5 60q0 53 37 75.5t115 22.5h124v97h-350v58h653zM482 367l63 63l62 -63l-62 -62z" />
    <glyph glyph-name="uni0919094D0915094D" horiz-adv-x="633" 
d="M643 641v-58h-232v-137h-6v-17h-190q-41 0 -60.5 -9.5t-19.5 -34.5q0 -15 7.5 -27.5t18.5 -19.5h142q83 0 127.5 -29.5t44.5 -89.5q0 -50 -35 -79.5t-100 -37.5v-136h252v-57h-252v-165h-71v87q-38 -14 -86 -14h-15q-72 0 -110.5 27.5t-38.5 89.5q0 60 36.5 89t94.5 29
h12q29 0 51 -4v-55q-24 4 -48 4h-12q-65 0 -65 -63q0 -36 20.5 -49t62.5 -13h16q44 0 82 16v212q-74 1 -131.5 17t-107.5 48l28 53q50 -32 102 -46.5t118 -14.5h16q53 0 82 15t29 44q0 35 -25.5 49.5t-76.5 14.5h-177q-21 16 -41.5 48t-20.5 60q0 53 37 75.5t115 22.5h124
v97h-350v58h653zM482 367l63 63l62 -63l-62 -62z" />
    <glyph glyph-name="uni0919094D0915094D0937" horiz-adv-x="670" 
d="M680 641v-58h-231v-137h-6v-17h-191q-41 0 -60.5 -9.5t-19.5 -34.5q0 -15 7.5 -27.5t18.5 -19.5h142q84 0 128.5 -29.5t44.5 -89.5q0 -36 -19 -61v-414h-67v160h-153v57h153v152q-38 -13 -96 -13h-13h-28q9 -19 9 -43q0 -30 -16 -52.5t-38 -37t-60 -33.5
q-42 -21 -62.5 -37.5t-20.5 -39.5q0 -30 22 -40.5t68 -10.5h7l30 1v62h67v-175h-67v58q-10 -1 -33 -1h-7q-74 0 -114 26.5t-40 78.5q0 43 28.5 68t81.5 51q45 23 66 40t21 44t-15 40t-38 13t-38.5 -13t-15.5 -41v-37h-67v37q0 58 44 87q-5 3 -35 20l28 53
q50 -32 102.5 -46.5t117.5 -14.5h16q111 0 111 57q0 36 -25 51t-77 15h-177q-21 16 -41.5 48t-20.5 60q0 53 37 75.5t116 22.5h124v97h-388v58h690zM582 430l63 -63l-63 -62l-63 62z" />
    <glyph glyph-name="uni0919094D0916" horiz-adv-x="690" 
d="M700 641v-58h-231v-137h-6v-17h-191q-41 0 -60.5 -9.5t-19.5 -34.5q0 -15 7.5 -27.5t18.5 -19.5h142q84 0 128.5 -29.5t44.5 -89.5q0 -19 -6 -36v-439h-67v103q-29 -8 -58 -8h-9q-118 0 -118 102q0 51 29.5 76.5t80.5 25.5h7q13 0 31 -3v-55q-14 2 -28 2h-6
q-23 0 -35 -10.5t-12 -35.5q0 -26 13 -36.5t44 -10.5h7q28 0 54 10v213q-45 -17 -109 -17h-13q-55 0 -96 7v-108q0 -50 -29 -70t-90 -20h-23v-25q0 -49 20.5 -66.5t72.5 -17.5h128v-56h-126q-80 0 -121 29.5t-41 110.5v165h67v-85h24q26 0 38 8t12 34v117q-51 18 -87 42
l28 53q50 -32 102.5 -46.5t117.5 -14.5h16q111 0 111 57q0 36 -25 51t-77 15h-177q-21 16 -41.5 48t-20.5 60q0 53 37 75.5t116 22.5h124v97h-408v58h710zM602 430l63 -63l-63 -62l-63 62z" />
    <glyph glyph-name="uni0919094D0917" horiz-adv-x="633" 
d="M643 641v-58h-232v-137h-6v-17h-190q-41 0 -60.5 -9.5t-19.5 -34.5q0 -15 7.5 -27.5t18.5 -19.5h142q83 0 127.5 -29.5t44.5 -89.5q0 -55 -41 -84v-391h-70v362q-31 -6 -70 -6h-14q-37 0 -70 3v-147q0 -104 -83 -104q-76 0 -114 93l54 28q14 -31 26 -47t27 -16
q12 0 16 10.5t4 35.5l-1 160q-60 17 -109 49l28 53q50 -32 102.5 -46.5t117.5 -14.5h16q53 0 82 15t29 44q0 35 -25.5 49.5t-76.5 14.5h-177q-21 16 -41.5 48t-20.5 60q0 53 37 75.5t115 22.5h125v97h-351v58h653zM545 430l62 -63l-62 -62l-63 62z" />
    <glyph glyph-name="uni0919094D0918" horiz-adv-x="641" 
d="M651 641v-58h-232v-137h-5v-17h-191q-41 0 -60.5 -9.5t-19.5 -34.5q0 -15 7.5 -27.5t18.5 -19.5h142q83 0 128 -29.5t45 -89.5q0 -41 -25 -69v-406h-70v62q-48 -18 -101 -18h-18q-75 0 -116 24.5t-41 90.5q0 54 34 80q-64 28 -64 93q0 31 16 57q-35 15 -61 32l28 53
q50 -32 102.5 -46.5t117.5 -14.5h16q53 0 82 14t29 43q0 36 -25.5 51t-76.5 15h-177q-21 16 -41.5 48t-20.5 60q0 53 37 75.5t116 22.5h124v97h-359v58h661zM553 430l63 -63l-63 -62l-63 62zM389 -130v240q-36 -10 -87 -10h-14q-69 0 -124 12q-10 -15 -10 -35
q0 -36 27 -48.5t76 -12.5h35v-5h9v-49h-49q-68 0 -68 -57q0 -34 23 -47t66 -13h18q55 0 98 25z" />
    <glyph glyph-name="uni0919094D092E" horiz-adv-x="829" 
d="M839 641v-58h-115v-839h-71v237h-218v-102h-71v229q-29 -8 -75 -8h-14q-77 0 -136.5 16t-110.5 49l28 53q50 -32 101 -46.5t116 -14.5h16q49 0 76.5 14t27.5 43q0 36 -25.5 51t-76.5 15h-167q-21 16 -41.5 48t-20.5 60q0 53 37 75.5t116 22.5h114v97h-339v58h849zM653 39
v544h-254v-137h-5v-17h-183q-41 0 -59.5 -9.5t-18.5 -34.5q0 -15 7.5 -27.5t18.5 -19.5h132q83 0 128 -29.5t45 -89.5q0 -46 -29 -75v-105h218zM594 367l-63 -62l-62 62l62 63z" />
    <glyph glyph-name="uni0919094D0930" horiz-adv-x="599" 
d="M609 641v-58h-216v-166h-6v-18h-172q-42 0 -62 -13t-20 -48q0 -22 7.5 -38t19.5 -24h125q83 0 127.5 -34t44.5 -104q0 -61 -34.5 -96.5t-98.5 -43.5l140 -108l-43 -48l-169 130l-169 -130l-43 48l146 112q-82 13 -158 60l28 54q50 -32 100.5 -47.5t113.5 -15.5h14
q48 0 75 19.5t27 59.5q0 47 -25 67t-76 20h-160q-22 17 -42.5 50t-20.5 72q0 62 37.5 89t115.5 27h107v126h-332v58h619zM516 384l63 -63l-63 -62l-63 62z" />
    <glyph glyph-name="uni091A094D091A" horiz-adv-x="947" 
d="M957 641v-58h-115v-583h-71v139q-48 -24 -116 -24h-20q-111 0 -158 44q-70 -44 -158 -44h-18q-100 0 -149.5 36.5t-49.5 123.5q0 75 39 114h-114v58h656v-58h-118q-28 -15 -43 -41t-15 -70t16 -66.5t44 -30.5t74 -8h18q66 0 112 27v383h-781v58h967zM324 173q70 0 122 34
q-10 32 -10 68q0 75 39 114h-244q-28 -15 -43 -41t-15 -70t16 -66.5t44 -30.5t74 -8h17z" />
    <glyph glyph-name="uni091A094D0930" horiz-adv-x="606" 
d="M623 641v-58h-115v-583h-71v139l-2 -1l-245 -164l-36 51l146 90q-100 1 -149 37t-49 123q0 75 39 114h-114v58h321v-58h-117q-28 -15 -43 -41t-15 -70t16 -66.5t44 -30.5t74 -8h17q65 0 113 27v383h-447v58h633z" />
    <glyph glyph-name="uni091A094D0072" horiz-adv-x="395" 
d="M405 583h-415v58h415v-58zM487 168q-14 -11 -32 -21l-258 -173l-37 51l145 90h-4q-100 0 -149.5 36.5t-49.5 123.5q0 75 39 114h-114v58h321v-58h-117q-28 -15 -43 -41t-15 -70t16 -66.5t44 -30.5t74 -8h17q46 0 86 14.5t77 51.5v-71z" />
    <glyph glyph-name="uni091B094D0928" horiz-adv-x="715" 
d="M603 583v-70q18 -12 26.5 -33t8.5 -53v-89q0 -87 -38 -144v-450h-71v207h-214q-22 0 -31 -5.5t-9 -20.5q0 -27 51 -52l-28 -52q-47 20 -69.5 47t-22.5 64q0 77 101 77h222v121q-68 -37 -170 -37h-16q-108 0 -177.5 38.5t-69.5 122.5q0 46 15.5 76t47.5 48
q-47 13 -69.5 42t-22.5 76q0 53 41 87h-118v58h735v-58h-122zM533 583h-314q-81 -25 -81 -85q1 -49 38 -67t120 -18h27v-57h-16q-72 0 -106.5 -21.5t-34.5 -77.5q0 -59 50 -83t127 -24h16q90 0 149.5 42.5t59.5 145.5v96q0 19 -7 27.5t-27 8.5q-18 0 -25.5 -8.5t-7.5 -27.5
v-72h-68v73q0 45 23.5 68t76.5 24v56z" />
    <glyph glyph-name="uni091B094D0930" horiz-adv-x="715" 
d="M603 583v-78q35 -21 35 -78v-124q0 -132 -62.5 -199t-163.5 -80l149 -114l-43 -49l-169 131l-169 -131l-43 49l149 114q-86 10 -138 52.5t-52 123.5q0 105 66 143q-49 13 -72 44.5t-23 84.5q0 70 47 111h-124v58h735v-58h-122zM533 583h-310q-39 -15 -62 -40.5t-23 -69.5
q1 -56 37.5 -75t120.5 -19h27v-57h-16q-72 0 -106.5 -26t-34.5 -94q0 -70 51 -97t126 -27h16q89 0 149 50t60 175v122q0 20 -7 28.5t-27 8.5q-18 0 -25.5 -8.5t-7.5 -28.5v-103h-68v105q0 45 23.5 68t76.5 24v64z" />
    <glyph glyph-name="uni091B094D0935" horiz-adv-x="715" 
d="M603 583v-70q18 -12 26.5 -33t8.5 -53v-89q0 -78 -29.5 -129.5t-82.5 -79.5v-385h-71v84q-41 -15 -86 -15h-16q-148 0 -148 118q0 59 36.5 88.5t93.5 29.5h12q30 0 52 -4v-56q-24 4 -48 4h-12q-65 0 -65 -62q0 -36 20.5 -49t62.5 -13h16q47 0 82 16v218q-43 -10 -96 -10
h-16q-108 0 -177.5 38.5t-69.5 122.5q0 46 15.5 76t47.5 48q-47 13 -69.5 42t-22.5 76q0 53 41 87h-118v58h735v-58h-122zM533 583h-314q-81 -25 -81 -85q1 -49 38 -67t120 -18h27v-57h-16q-72 0 -106.5 -21.5t-34.5 -77.5q0 -59 50 -83t127 -24h17q89 0 148.5 42.5
t59.5 145.5v96q0 19 -7 27.5t-27 8.5q-18 0 -25.5 -8.5t-7.5 -27.5v-72h-68v73q0 45 23.5 68t76.5 24v56z" />
    <glyph glyph-name="uni091B094D0072" horiz-adv-x="715" 
d="M603 583v-78q35 -21 35 -78v-124q0 -132 -62.5 -199t-163.5 -80l149 -114l-43 -49l-169 131l-169 -131l-43 49l149 114q-86 10 -138 52.5t-52 123.5q0 105 66 143q-49 13 -72 44.5t-23 84.5q0 70 47 111h-124v58h735v-58h-122zM533 583h-310q-39 -15 -62 -40.5t-23 -69.5
q1 -56 37.5 -75t120.5 -19h27v-57h-16q-72 0 -106.5 -26t-34.5 -94q0 -70 51 -97t126 -27h16q89 0 149 50t60 175v122q0 20 -7 28.5t-27 8.5q-18 0 -25.5 -8.5t-7.5 -28.5v-103h-68v105q0 45 23.5 68t76.5 24v64zM347 -101l202 -156l-42 -48l-202 156z" />
    <glyph glyph-name="uni091C094D091E094D" horiz-adv-x="525" 
d="M535 583h-545v58h545v-58zM158.5 422q-19.5 -13 -19.5 -48q0 -22 8 -38.5t19 -23.5h112q77 0 118.5 -34t41.5 -104t-42 -106.5t-117 -36.5h-14q-69 0 -128 23v-96h-67v233h67v-76q55 -26 126 -26h14q43 0 66.5 19.5t23.5 58.5q0 47 -22 67t-67 20h-147q-23 17 -43 50.5
t-20 71.5q0 63 37 90t115 27h384v-58h-384q-42 0 -61.5 -13z" />
    </font>
</defs>
</svg>
