<?xml version="1.0" standalone="no"?>
<!DOCTYPE svg PUBLIC "-//W3C//DTD SVG 1.1//EN" "http://www.w3.org/Graphics/SVG/1.1/DTD/svg11.dtd" >
<svg xmlns="http://www.w3.org/2000/svg" xmlns:xlink="http://www.w3.org/1999/xlink" version="1.1">
<metadata>
Created by FontForge 20170731 at Fri Oct  2 22:50:15 2015
 By Aleksey,,,
Copyright (c) 2015 Dan Reynolds. Copyright (c) 2015 Mathieu Re'guer.
</metadata>
<defs>
<font id="Biryani-SemiBold" horiz-adv-x="294" >
  <font-face 
    font-family="Biryani SemiBold"
    font-weight="600"
    font-stretch="normal"
    units-per-em="1000"
    panose-1="0 0 7 0 0 0 0 0 0 0"
    ascent="800"
    descent="-200"
    x-height="556"
    cap-height="758"
    bbox="-1279 -608 2264 1109"
    underline-thickness="50"
    underline-position="-150"
    unicode-range="U+000D-FB02"
  />
<missing-glyph horiz-adv-x="600" 
 />
    <glyph glyph-name="fi" unicode="fi" horiz-adv-x="637" 
d="M36 0zM230 741q-12 -14 -12 -52v-133h110v-104h-110v-452h-114v452h-68v104h68v167q0 71 35.5 103.5t113.5 32.5q35 0 75 -9v-101q-24 6 -53 6q-33 0 -45 -14zM438 808h114v-151h-114v151zM438 556h114v-556h-114v556z" />
    <glyph glyph-name="fl" unicode="fl" horiz-adv-x="687" 
d="M36 0zM230 741q-12 -14 -12 -52v-133h110v-104h-110v-452h-114v452h-68v104h68v167q0 71 35.5 103.5t113.5 32.5q35 0 75 -9v-101q-24 6 -53 6q-33 0 -45 -14zM473.5 19.5q-35.5 32.5 -35.5 103.5v723h114v-688q0 -38 12 -52.5t46 -14.5q30 0 52 6v-101q-39 -9 -74 -9
q-79 0 -114.5 32.5z" />
    <glyph glyph-name=".notdef" horiz-adv-x="600" 
 />
    <glyph glyph-name=".null" horiz-adv-x="0" 
 />
    <glyph glyph-name="nonmarkingreturn" unicode="&#xd;" horiz-adv-x="600" 
 />
    <glyph glyph-name="space" unicode=" " horiz-adv-x="220" 
 />
    <glyph glyph-name="exclam" unicode="!" horiz-adv-x="284" 
d="M76 758h132l-17 -528h-98zM80 161h124v-161h-124v161z" />
    <glyph glyph-name="quotedbl" unicode="&#x22;" horiz-adv-x="474" 
d="M89 456zM89 758h106v-302h-106v302zM279 758h106v-302h-106v302z" />
    <glyph glyph-name="numbersign" unicode="#" horiz-adv-x="703" 
d="M538 412l-19 -150h93v-104h-107l-20 -158h-106l20 158h-143l-20 -158h-106l20 158h-90v104h104l19 150h-93v104h107l20 158h106l-20 -158h143l20 158h106l-20 -158h90v-104h-104zM432 412h-143l-19 -150h143z" />
    <glyph glyph-name="dollar" unicode="$" horiz-adv-x="575" 
d="M465 48.5q-52 -51.5 -145 -62.5v-82h-101v81q-95 9 -179 50v108q84 -45 179 -55v201l-4 2q-82 23 -127 67t-45 129q0 89 49 139.5t140 59.5v72h101v-74q38 -4 72 -15t73 -30v-106q-68 38 -145 48v-204l16 -4q84 -23 126 -66.5t42 -123.5q0 -83 -52 -134.5zM175 439
q18 -19 57 -32v177q-75 -12 -75 -90q0 -36 18 -55zM382 228q-21 19 -62 32v-171q45 8 64 30.5t19 56.5q0 33 -21 52z" />
    <glyph glyph-name="percent" unicode="%" horiz-adv-x="1024" 
d="M676 773h98l-417 -806h-98zM131 337.5q-47 27.5 -73 74.5t-26 104t26 104t73 74t107 27q61 0 107.5 -27t72 -74t25.5 -104t-25.5 -104t-72.5 -74.5t-107 -27.5t-107 27.5zM320.5 428.5q30.5 35.5 30.5 87.5t-30.5 87t-82.5 35q-51 0 -82.5 -35t-31.5 -87t31.5 -87.5
t82.5 -35.5q52 0 82.5 35.5zM680 10.5q-47 27.5 -73 74.5t-26 104t26 104t73 74t107 27q61 0 107.5 -27t72 -74t25.5 -104t-25.5 -104t-72.5 -74.5t-107 -27.5t-107 27.5zM869.5 101.5q30.5 35.5 30.5 87.5q0 53 -30.5 87.5t-82.5 34.5q-51 0 -82.5 -35t-31.5 -87
t31.5 -87.5t82.5 -35.5q52 0 82.5 35.5z" />
    <glyph glyph-name="ampersand" unicode="&#x26;" horiz-adv-x="814" 
d="M784 104v-104h-48q-100 0 -203 70q-50 -42 -107.5 -64.5t-119.5 -22.5q-125 0 -192 59t-67 158q0 75 39 125t110 95q-35 46 -53.5 88t-18.5 90q0 83 54.5 132t140.5 49t139 -46.5t53 -127.5q0 -56 -38 -104t-100 -88l-21 -13q36 -44 84 -94.5t92 -89.5q36 56 55.5 128
t20.5 154h118q0 -95 -30 -184.5t-83 -161.5q37 -25 67.5 -36.5t60.5 -11.5h47zM261 659.5q-19 -22.5 -19 -61.5q0 -31 11.5 -59t35.5 -61l28 17q37 23 56.5 52.5t19.5 59.5q0 34 -18 54.5t-56 20.5q-39 0 -58 -22.5zM201 118.5q36 -33.5 105 -33.5q82 0 146 49
q-74 69 -192 206q-51 -34 -73 -64t-22 -73q0 -51 36 -84.5z" />
    <glyph glyph-name="quotesingle" unicode="'" horiz-adv-x="284" 
d="M89 758h106v-302h-106v302z" />
    <glyph glyph-name="parenleft" unicode="(" horiz-adv-x="356" 
d="M106 78q-50 117 -50 281q0 165 50 281.5t129 206.5l81 -57q-59 -80 -98 -184t-39 -247t39 -246.5t98 -184.5l-81 -57q-79 90 -129 207z" />
    <glyph glyph-name="parenright" unicode=")" horiz-adv-x="356" 
d="M40 -72q59 80 98 184t39 247q0 248 -137 431l81 57q79 -90 129 -206.5t50 -281.5q0 -164 -50 -281t-129 -207z" />
    <glyph glyph-name="asterisk" unicode="*" horiz-adv-x="618" 
d="M377 624l171 -82l-48 -84l-157 107l14 -189h-96l15 189l-158 -107l-48 84l172 82l-172 82l48 84l158 -107l-15 189h96l-14 -189l157 107l48 -84z" />
    <glyph glyph-name="plus" unicode="+" horiz-adv-x="550" 
d="M483 285h-155v-156l-106 -1v157h-155v104h155v155l106 1v-156h155v-104z" />
    <glyph glyph-name="comma" unicode="," horiz-adv-x="284" 
d="M107 166h120l-76 -317h-104z" />
    <glyph glyph-name="hyphen" unicode="-" horiz-adv-x="454" 
d="M80 348h294v-104h-294v104z" />
    <glyph glyph-name="period" unicode="." horiz-adv-x="284" 
d="M80 166h124v-166h-124v166z" />
    <glyph glyph-name="slash" unicode="/" horiz-adv-x="417" 
d="M306 931h116l-311 -1108h-116z" />
    <glyph glyph-name="zero" unicode="0" horiz-adv-x="550" 
d="M102.5 68.5q-55.5 85.5 -55.5 267.5q0 179 56 265.5t172 86.5q112 0 170 -87.5t58 -264.5q0 -180 -57.5 -266.5t-170.5 -86.5q-117 0 -172.5 85.5zM357 145.5q28 60.5 28 196.5q0 244 -110 244q-56 0 -83 -59t-27 -191q0 -135 27 -193t83 -58q54 0 82 60.5z" />
    <glyph glyph-name="one" unicode="1" horiz-adv-x="550" 
d="M469 104v-104h-378v104h131v466h-111v104h227v-570h131z" />
    <glyph glyph-name="two" unicode="2" horiz-adv-x="550" 
d="M52 104q134 119 192.5 175.5t89.5 103.5t31 93q0 54 -31.5 82t-86.5 28q-90 0 -170 -41v106q47 21 93 29t96 8q96 0 156.5 -52.5t60.5 -150.5q0 -63 -31.5 -119.5t-83 -108.5t-148.5 -138l-16 -15h304v-104h-456v104z" />
    <glyph glyph-name="three" unicode="3" horiz-adv-x="550" 
d="M460.5 294.5q32.5 -43.5 32.5 -109.5q0 -93 -64 -147.5t-173 -54.5q-107 0 -189 35v106q38 -18 82 -28.5t87 -10.5q67 0 103 30t36 85q0 51 -36 77.5t-103 26.5h-89v102h89q63 0 96 23t33 68q0 42 -32 65.5t-91 23.5q-95 0 -165 -35v106q75 31 179 31q105 0 166 -47
t61 -127q0 -62 -29 -99.5t-87 -58.5q61 -18 93.5 -61.5z" />
    <glyph glyph-name="four" unicode="4" horiz-adv-x="550" 
d="M538 145h-98v-162h-116v162h-304v99l274 439h146v-439h98v-99zM324 244v291l-182 -291h182z" />
    <glyph glyph-name="five" unicode="5" horiz-adv-x="550" 
d="M435.5 374q62.5 -60 62.5 -160q0 -111 -67.5 -171t-190.5 -60q-96 0 -173 29v105q37 -15 81 -23.5t83 -8.5q149 0 149 129q0 57 -36.5 87.5t-103.5 30.5q-43 0 -86 -8.5t-76 -21.5l7 372h374v-104h-261l-3 -140q28 4 65 4q113 0 175.5 -60z" />
    <glyph glyph-name="six" unicode="6" horiz-adv-x="550" 
d="M411.5 396q47.5 -27 73.5 -75t26 -110q0 -69 -29.5 -120.5t-81 -79.5t-116.5 -28q-117 0 -179.5 68.5t-62.5 195.5q0 136 80.5 246t228.5 193l74 -74q-92 -58 -147.5 -108.5t-84.5 -107.5q52 27 107 27q64 0 111.5 -27zM362 113.5q31 33.5 31 92.5q0 58 -31.5 91.5
t-82.5 33.5q-62 0 -116 -38q-3 -25 -3 -55q1 -80 33 -119t89 -39q49 0 80 33.5z" />
    <glyph glyph-name="seven" unicode="7" horiz-adv-x="550" 
d="M505 674v-104l-251 -587h-129l262 587h-324v104h442z" />
    <glyph glyph-name="eight" unicode="8" horiz-adv-x="550" 
d="M478 282q32 -45 32 -105q0 -58 -29.5 -102t-82.5 -68t-123 -24q-108 0 -171.5 52.5t-63.5 141.5q0 60 31 105.5t88 68.5q-46 22 -71.5 63t-25.5 93t26 93t74 64.5t113 23.5q62 0 110.5 -23.5t75.5 -64.5t27 -93t-26 -92.5t-73 -63.5q57 -24 89 -69zM207 564
q-27 -27 -27 -69q0 -43 27 -70t68 -27q42 0 68.5 27t26.5 70q0 42 -27 69t-68 27t-68 -27zM358.5 110q33.5 30 33.5 80t-33.5 79.5t-83.5 29.5t-83.5 -29.5t-33.5 -79.5t33.5 -80t83.5 -30t83.5 30z" />
    <glyph glyph-name="nine" unicode="9" horiz-adv-x="550" 
d="M445.5 618.5q62.5 -68.5 62.5 -194.5q0 -136 -80.5 -246.5t-228.5 -193.5l-74 74q92 59 147.5 109t83.5 107q-52 -27 -106 -27q-63 0 -111 27t-74 75.5t-26 110.5q0 68 29.5 119.5t81 79.5t116.5 28q117 0 179.5 -68.5zM386 377q4 23 4 56q-1 79 -33 118t-89 39
q-49 0 -80 -33t-31 -92q0 -58 31.5 -92t82.5 -34q63 0 115 38z" />
    <glyph glyph-name="colon" unicode=":" horiz-adv-x="284" 
d="M80 0zM80 166h124v-166h-124v166zM80 561h124v-166h-124v166z" />
    <glyph glyph-name="semicolon" unicode=";" horiz-adv-x="284" 
d="M47 0zM107 166h120l-76 -317h-104zM80 561h124v-166h-124v166z" />
    <glyph glyph-name="less" unicode="&#x3c;" horiz-adv-x="550" 
d="M192 335l288 -169l-51 -91l-362 214v92l363 215l50 -92z" />
    <glyph glyph-name="equal" unicode="=" horiz-adv-x="550" 
d="M67 489h416v-104h-416v104zM67 289h416v-104h-416v104z" />
    <glyph glyph-name="greater" unicode="&#x3e;" horiz-adv-x="550" 
d="M70 75zM358 335l-288 -169l51 -91l362 214v92l-363 215l-50 -92z" />
    <glyph glyph-name="question" unicode="?" horiz-adv-x="525" 
d="M171 282q0 57 20 90t67 72l39 32q31 27 42 46.5t11 48.5q0 47 -30.5 73t-83.5 26q-90 0 -174 -41v106q46 20 90.5 28.5t93.5 8.5q99 0 160.5 -50.5t61.5 -143.5q0 -59 -23.5 -96.5t-67.5 -74.5l-29 -24q-35 -30 -48 -52t-13 -58v-43h-116v52zM167 161h124v-161h-124v161z
" />
    <glyph glyph-name="at" unicode="@" horiz-adv-x="986" 
d="M647 159q-6 -18 -6 -32q0 -19 11.5 -27.5t36.5 -8.5q47 0 80.5 34.5t51 91t17.5 120.5q0 148 -83.5 228t-232.5 80q-99 0 -185 -53t-137.5 -148.5t-51.5 -215.5q0 -109 37.5 -190.5t113 -127t187.5 -45.5q66 0 126 18.5t126 54.5l30 -75q-74 -37 -139 -56t-143 -19
q-126 0 -223 51.5t-151.5 151t-54.5 237.5q0 143 63.5 256t170 175.5t231.5 62.5q124 0 216 -47t141.5 -134t49.5 -204q0 -94 -32.5 -167.5t-90 -114.5t-131.5 -41q-52 0 -84 19.5t-40 55.5q-29 -30 -63.5 -46t-69.5 -16q-68 0 -110 43t-42 124q0 88 33.5 159.5t91 112
t126.5 40.5q81 0 119 -58l13 42h96zM563 196l51 176q-39 50 -90 50q-46 0 -83 -31.5t-57.5 -82.5t-21.5 -108q0 -48 17.5 -68t54.5 -20q70 0 129 84z" />
    <glyph glyph-name="A" unicode="A" horiz-adv-x="754" 
d="M532 204h-311l-73 -204h-120l280 767h138l281 -767h-120zM494 308l-117 324l-118 -324h235z" />
    <glyph glyph-name="B" unicode="B" horiz-adv-x="718" 
d="M619 318.5q35 -45.5 35 -111.5q0 -105 -64 -156t-214 -51h-276v758h276q136 0 192 -50.5t56 -152.5q0 -61 -25.5 -103.5t-80.5 -66.5q66 -21 101 -66.5zM218 429h158q128 0 128 119q0 61 -29 87t-99 26h-158v-232zM494 304q-40 28 -118 28h-158v-235h158q87 0 122.5 28
t35.5 90q0 61 -40 89z" />
    <glyph glyph-name="C" unicode="C" horiz-adv-x="708" 
d="M219.5 32q-84.5 49 -126.5 138t-42 208q0 112 42 201t127 141t209 52q53 0 94.5 -8.5t89.5 -28.5v-106q-82 41 -181 41q-79 0 -138.5 -37.5t-91 -103.5t-31.5 -151q1 -87 31 -153t88 -103t139 -37q52 0 102 15t106 43l36 -99q-58 -30 -122 -45.5t-122 -15.5
q-125 0 -209.5 49z" />
    <glyph glyph-name="D" unicode="D" horiz-adv-x="798" 
d="M646 661.5q98 -96.5 98 -283.5q0 -188 -97.5 -283t-290.5 -95h-256v758h256q192 0 290 -96.5zM557 589.5q-67 66.5 -201 66.5h-138v-554h138q135 0 201.5 67t66.5 212q0 142 -67 208.5z" />
    <glyph glyph-name="E" unicode="E" horiz-adv-x="635" 
d="M575 99v-99h-475v758h470v-99h-352v-228h302v-99h-302v-233h357z" />
    <glyph glyph-name="F" unicode="F" horiz-adv-x="615" 
d="M218 654v-236h302v-104h-302v-314h-118v758h470v-104h-352z" />
    <glyph glyph-name="G" unicode="G" horiz-adv-x="768" 
d="M690 463v-410q-60 -34 -130 -52t-131 -18q-123 0 -207.5 49.5t-127.5 138.5t-43 207q0 112 41 201t126 141t211 52q66 0 111.5 -12.5t102.5 -37.5v-109q-51 28 -100.5 42.5t-113.5 14.5q-80 0 -138.5 -37t-89 -102.5t-30.5 -149.5q0 -88 30 -154.5t88.5 -104t139.5 -37.5
q69 0 145 32v242h-259v104h375z" />
    <glyph glyph-name="H" unicode="H" horiz-adv-x="797" 
d="M697 758v-758h-118v329h-361v-329h-118v758h118v-325h361v325h118z" />
    <glyph glyph-name="I" unicode="I" horiz-adv-x="318" 
d="M100 758h118v-758h-118v758z" />
    <glyph glyph-name="J" unicode="J" horiz-adv-x="333" 
d="M6 -125v102q20 -4 50 -4q24 0 36 8t17.5 30t5.5 65v682h118v-688q0 -81 -14 -123.5t-48 -60t-99 -17.5q-40 0 -66 6z" />
    <glyph glyph-name="K" unicode="K" horiz-adv-x="701" 
d="M265 324l-47 -51v-273h-118v758h118v-322l300 322h148l-322 -349l327 -409h-150z" />
    <glyph glyph-name="L" unicode="L" horiz-adv-x="565" 
d="M525 104v-104h-425v758h118v-654h307z" />
    <glyph glyph-name="M" unicode="M" horiz-adv-x="928" 
d="M828 758v-758h-118v584l-216 -305h-61l-215 304v-583h-118v758h132l232 -330l232 330h132z" />
    <glyph glyph-name="N" unicode="N" horiz-adv-x="797" 
d="M697 758v-758h-131l-348 564v-564h-118v758h131l348 -564v564h118z" />
    <glyph glyph-name="O" unicode="O" horiz-adv-x="839" 
d="M218 34.5q-83 51.5 -125 141t-42 202.5q0 111 42 200t125 141.5t202 52.5q118 0 201 -52.5t125 -142t42 -199.5q0 -113 -42 -202.5t-125 -141t-201 -51.5q-119 0 -202 51.5zM553.5 123.5q55.5 38.5 84.5 105.5t29 152q0 81 -29 147t-85 104t-133 38q-80 0 -135.5 -38.5
t-84 -104.5t-28.5 -149q0 -84 28.5 -150.5t84 -104.5t135.5 -38q78 0 133.5 38.5z" />
    <glyph glyph-name="P" unicode="P" horiz-adv-x="669" 
d="M634 525q0 -113 -64.5 -172t-193.5 -59h-158v-294h-118v758h276q258 0 258 -233zM480 625.5q-34 30.5 -104 30.5h-158v-260h158q70 0 104 32.5t34 99.5t-34 97.5z" />
    <glyph glyph-name="Q" unicode="Q" horiz-adv-x="839" 
d="M756 199.5q-32 -81.5 -93 -134.5l114 -129h-139l-64 75q-70 -28 -154 -28q-119 0 -202 51.5t-125 141t-42 202.5q0 111 42 200t125 141.5t202 52.5q118 0 201 -52.5t125 -142t42 -199.5q0 -97 -32 -178.5zM200.5 227.5q28.5 -66.5 84 -104.5t135.5 -38q44 0 80 12
l-121 140h135l74 -85q38 40 58.5 99t20.5 130q0 81 -29 147t-85 104t-133 38q-80 0 -135.5 -38.5t-84 -104.5t-28.5 -149q0 -84 28.5 -150.5z" />
    <glyph glyph-name="R" unicode="R" horiz-adv-x="715" 
d="M349 309h-131v-309h-118v758h276q258 0 258 -225q0 -87 -40.5 -141t-121.5 -73l197 -319h-133zM218 411h158q70 0 104 31t34 94t-34 91.5t-104 28.5h-158v-245z" />
    <glyph glyph-name="S" unicode="S" horiz-adv-x="650" 
d="M61 38v109q118 -62 264 -62q77 0 113 31t36 82q0 49 -33 74t-100 43l-68 19q-58 17 -100 39t-70.5 64.5t-28.5 110.5q0 110 65 167t183 57q71 0 124.5 -12.5t108.5 -39.5v-106q-106 56 -233 56q-130 0 -130 -114q1 -50 30.5 -73.5t96.5 -41.5l69 -19q62 -17 105.5 -40
t71 -66.5t27.5 -113.5q-1 -102 -72 -160.5t-195 -58.5q-148 0 -264 55z" />
    <glyph glyph-name="T" unicode="T" horiz-adv-x="644" 
d="M604 654h-223v-654h-118v654h-223v104h564v-104z" />
    <glyph glyph-name="U" unicode="U" horiz-adv-x="793" 
d="M172.5 59q-74.5 76 -74.5 214v485h118v-485q0 -93 45.5 -140.5t135.5 -47.5t135.5 47.5t45.5 140.5v485h118v-485q0 -139 -74.5 -214.5t-224.5 -75.5t-224.5 76z" />
    <glyph glyph-name="V" unicode="V" horiz-adv-x="764" 
d="M732 758l-280 -767h-138l-281 767h122l227 -631l227 631h123z" />
    <glyph glyph-name="W" unicode="W" horiz-adv-x="1123" 
d="M1081 758l-210 -767h-138l-171 598l-170 -598h-138l-211 767h117l163 -619l171 619h135l172 -619l162 619h118z" />
    <glyph glyph-name="X" unicode="X" horiz-adv-x="759" 
d="M584 0l-203 303l-203 -303h-138l270 391l-252 367h137l186 -279l187 279h137l-253 -368l270 -390h-138z" />
    <glyph glyph-name="Y" unicode="Y" horiz-adv-x="718" 
d="M417 293v-293h-116v293l-273 465h120l211 -365l212 365h120z" />
    <glyph glyph-name="Z" unicode="Z" horiz-adv-x="723" 
d="M653 104v-104h-573v102l395 552h-382v104h527v-102l-394 -552h427z" />
    <glyph glyph-name="bracketleft" unicode="[" horiz-adv-x="334" 
d="M289 -25v-104h-199v976h194v-104h-78v-768h83z" />
    <glyph glyph-name="backslash" unicode="\" horiz-adv-x="417" 
d="M-5 931h116l311 -1108h-116z" />
    <glyph glyph-name="bracketright" unicode="]" horiz-adv-x="334" 
d="M244 -129h-196v104h80v768h-80v104h196v-976z" />
    <glyph glyph-name="asciicircum" unicode="^" horiz-adv-x="550" 
d="M444 124l-170 287l-168 -287l-91 51l214 361h92l214 -362z" />
    <glyph glyph-name="underscore" unicode="_" horiz-adv-x="500" 
d="M0 -77h500v-104h-500v104z" />
    <glyph glyph-name="grave" unicode="`" horiz-adv-x="650" 
d="M180 809h133l103 -153h-115z" />
    <glyph glyph-name="a" unicode="a" horiz-adv-x="556" 
d="M410 526.5q49 -29.5 65 -79t16 -124.5v-323h-114v53q-37 -35 -74 -50.5t-80 -15.5q-84 0 -137 50.5t-53 138.5q0 90 56 139.5t151 49.5q74 0 136 -32q-1 43 -9.5 69t-35 40t-78.5 14h-84v100h99q93 0 142 -29.5zM377 141v107q-56 28 -116 28q-49 0 -80.5 -23t-31.5 -76
q0 -51 27 -73.5t65 -22.5q66 0 136 60z" />
    <glyph glyph-name="b" unicode="b" horiz-adv-x="657" 
d="M538 496.5q68 -75.5 68 -218.5q0 -144 -68 -219.5t-181 -75.5q-81 0 -158 64v-47h-114v846h114v-338q77 64 158 64q113 0 181 -75.5zM450 135.5q38 48.5 38 142.5q0 93 -38 141.5t-112 48.5q-69 0 -139 -56v-269q70 -56 139 -56q74 0 112 48.5z" />
    <glyph glyph-name="c" unicode="c" horiz-adv-x="546" 
d="M121.5 63q-70.5 79 -70.5 216t70.5 214.5t202.5 78.5q46 0 79.5 -6t71.5 -21v-108q-37 17 -69.5 24t-71.5 7q-164 -1 -164 -188q0 -89 38.5 -140.5t123.5 -52.5q71 0 151 43l34 -97q-89 -50 -193 -50q-132 1 -202.5 80z" />
    <glyph glyph-name="d" unicode="d" horiz-adv-x="657" 
d="M572 846v-846h-114v47q-77 -64 -158 -64q-113 0 -181 75.5t-68 219.5q0 143 68 218.5t181 75.5q81 0 158 -64v338h114zM458 143v269q-70 56 -139 56q-74 0 -111.5 -48.5t-37.5 -141.5q0 -94 37.5 -142.5t111.5 -48.5q69 0 139 56z" />
    <glyph glyph-name="e" unicode="e" horiz-adv-x="591" 
d="M216 130q42 -48 131 -48q39 0 77 10.5t83 31.5l32 -92q-47 -26 -96 -37.5t-108 -11.5q-91 0 -154.5 37t-96.5 104t-33 155q0 93 34 159t93 100t131 34q113 0 177.5 -68.5t64.5 -199.5v-45h-381q4 -81 46 -129zM175 351h256q-5 63 -35 92.5t-87 29.5q-110 0 -134 -122z
" />
    <glyph glyph-name="f" unicode="f" horiz-adv-x="353" 
d="M230 741q-12 -14 -12 -52v-133h110v-104h-110v-452h-114v452h-68v104h68v167q0 71 35.5 103.5t113.5 32.5q35 0 75 -9v-101q-24 6 -53 6q-33 0 -45 -14z" />
    <glyph glyph-name="g" unicode="g" horiz-adv-x="643" 
d="M570 556v-564q0 -113 -57 -178t-186 -65q-68 0 -118.5 8t-100.5 28v110q47 -21 95.5 -31.5t88.5 -10.5q67 0 102.5 17.5t48.5 49t13 82.5v65q-77 -64 -158 -64q-113 0 -181 72.5t-68 212.5q0 138 68 211t181 73q81 0 158 -64v48h114zM456 163v249q-71 56 -139 56
q-73 0 -111.5 -47.5t-38.5 -132.5q0 -181 150 -181q68 0 139 56z" />
    <glyph glyph-name="h" unicode="h" horiz-adv-x="652" 
d="M521 513.5q51 -54.5 51 -178.5v-335h-114v335q0 69 -25 99t-87 30q-74 0 -147 -63v-401h-114v846h114v-345q79 67 166 67q105 0 156 -54.5z" />
    <glyph glyph-name="i" unicode="i" horiz-adv-x="284" 
d="M85 808h114v-151h-114v151zM85 556h114v-556h-114v556z" />
    <glyph glyph-name="j" unicode="j" horiz-adv-x="284" 
d="M85 808h114v-151h-114v151zM-25 -242v101q23 -6 53 -6q33 0 45 18t12 69v618h114v-653q0 -84 -34 -120t-115 -36q-26 0 -75 9z" />
    <glyph glyph-name="k" unicode="k" horiz-adv-x="602" 
d="M256 239l-57 -59v-180h-114v846h114v-523l214 223h140l-221 -229l250 -317h-138z" />
    <glyph glyph-name="l" unicode="l" horiz-adv-x="334" 
d="M120.5 19.5q-35.5 32.5 -35.5 103.5v723h114v-688q0 -38 12 -52.5t46 -14.5q30 0 52 6v-101q-39 -9 -74 -9q-79 0 -114.5 32.5z" />
    <glyph glyph-name="m" unicode="m" horiz-adv-x="993" 
d="M875.5 513.5q49.5 -54.5 49.5 -178.5v-335h-114v335q0 69 -23.5 99t-83.5 30q-72 0 -145 -68q3 -28 3 -61v-335h-114v335q0 69 -23.5 99t-83.5 30q-69 0 -142 -63v-401h-114v556h114v-55q76 67 161 67q66 0 109.5 -22t66.5 -69q91 91 187 91q103 0 152.5 -54.5z" />
    <glyph glyph-name="n" unicode="n" horiz-adv-x="652" 
d="M521 513.5q51 -54.5 51 -178.5v-335h-114v335q0 69 -25 99t-87 30q-72 0 -147 -63v-401h-114v556h114v-56q79 68 166 68q105 0 156 -54.5z" />
    <glyph glyph-name="o" unicode="o" horiz-adv-x="662" 
d="M178 22q-63 39 -95 105.5t-32 150.5q0 83 32 150t95 105.5t154 38.5q90 0 153 -38.5t94.5 -105.5t31.5 -150q0 -84 -31.5 -150.5t-94.5 -105.5t-153 -39q-91 0 -154 39zM450.5 137q41.5 53 41.5 141q0 87 -41.5 140t-118.5 53q-78 0 -120 -53t-42 -140q0 -88 42 -141
t120 -53q77 0 118.5 53z" />
    <glyph glyph-name="p" unicode="p" horiz-adv-x="657" 
d="M538 496.5q68 -75.5 68 -218.5q0 -144 -68 -219.5t-181 -75.5q-81 0 -158 64v-281h-114v790h114v-48q77 64 158 64q113 0 181 -75.5zM450 135.5q38 48.5 38 142.5q0 93 -38 141.5t-112 48.5q-69 0 -139 -56v-269q70 -56 139 -56q74 0 112 48.5z" />
    <glyph glyph-name="q" unicode="q" horiz-adv-x="657" 
d="M572 556v-790h-114v281q-77 -64 -158 -64q-113 0 -181 75.5t-68 219.5q0 143 68 218.5t181 75.5q81 0 158 -64v48h114zM458 143v269q-70 56 -139 56q-74 0 -111.5 -48.5t-37.5 -141.5q0 -94 37.5 -142.5t111.5 -48.5q69 0 139 56z" />
    <glyph glyph-name="r" unicode="r" horiz-adv-x="416" 
d="M386 568v-104h-23q-82 0 -164 -65v-399h-114v556h114v-59q79 71 164 71h23z" />
    <glyph glyph-name="s" unicode="s" horiz-adv-x="527" 
d="M153.5 -6.5q-48.5 10.5 -102.5 35.5v108q96 -55 214 -55q50 0 72.5 19.5t22.5 52.5q0 30 -17 45t-55 25l-73 17q-74 17 -113.5 55t-39.5 110q0 80 51.5 123t153.5 43q90 0 183 -36v-103q-84 40 -179 40q-50 0 -71.5 -17.5t-21.5 -44.5q0 -29 17 -43t51 -23l74 -17
q79 -18 117.5 -54.5t38.5 -115.5q0 -85 -57.5 -130t-153.5 -45q-63 0 -111.5 10.5z" />
    <glyph glyph-name="t" unicode="t" horiz-adv-x="390" 
d="M223 442v-284q0 -38 12 -52.5t45 -14.5q31 0 63 8v-101q-47 -11 -87 -11q-80 0 -113.5 33t-33.5 106v316h-73v104h73v190h114v-190h128v-104h-128z" />
    <glyph glyph-name="u" unicode="u" horiz-adv-x="652" 
d="M567 556v-556h-114v55q-79 -67 -166 -67q-105 0 -156 55t-51 178v335h114v-335q0 -68 25.5 -98.5t87.5 -30.5q73 0 146 63v401h114z" />
    <glyph glyph-name="v" unicode="v" horiz-adv-x="585" 
d="M565 556l-203 -565h-138l-204 565h118l155 -449l154 449h118z" />
    <glyph glyph-name="w" unicode="w" horiz-adv-x="887" 
d="M862 556l-163 -565h-128l-127 402l-127 -402h-128l-164 565h118l111 -421l123 421h133l124 -421l110 421h118z" />
    <glyph glyph-name="x" unicode="x" horiz-adv-x="593" 
d="M427 0l-134 201l-126 -201h-136l193 290l-183 266h136l120 -184l123 184h133l-188 -273l197 -283h-135z" />
    <glyph glyph-name="y" unicode="y" horiz-adv-x="565" 
d="M545 556l-240 -645q-24 -66 -47.5 -100t-55 -48t-82.5 -14q-37 0 -69 9v101q27 -6 55 -6q36 0 56.5 19t41.5 73l21 57l-205 554h118l143 -404l151 404h113z" />
    <glyph glyph-name="z" unicode="z" horiz-adv-x="546" 
d="M496 102v-102h-430v102l282 352h-264v102h390v-102l-281 -352h303z" />
    <glyph glyph-name="braceleft" unicode="{" horiz-adv-x="365" 
d="M214.5 401q-16.5 -30 -61.5 -42q45 -13 61.5 -43.5t16.5 -96.5v-171q0 -43 11 -58t43 -15q26 0 46 4v-104q-27 -4 -56 -4q-59 0 -93.5 13t-50.5 44.5t-16 88.5v187q0 44 -4.5 65.5t-16 29.5t-33.5 8h-21v104h21q22 0 33.5 8t16 30t4.5 65v187q0 57 16 88.5t50.5 44.5
t93.5 13q29 0 56 -4v-104q-20 4 -46 4q-32 0 -43 -15t-11 -58v-171q0 -68 -16.5 -98z" />
    <glyph glyph-name="bar" unicode="|" horiz-adv-x="316" 
d="M100 847h116v-976h-116v976z" />
    <glyph glyph-name="braceright" unicode="}" horiz-adv-x="324" 
d="M0 0zM109.5 401q16.5 -30 61.5 -42q-45 -13 -61.5 -43.5t-16.5 -96.5v-171q0 -43 -11 -58t-43 -15q-26 0 -46 4v-104q27 -4 56 -4q59 0 93.5 13t50.5 44.5t16 88.5v187q0 44 4.5 65.5t16 29.5t33.5 8h21v104h-21q-22 0 -33.5 8t-16 30t-4.5 65v187q0 57 -16 88.5
t-50.5 44.5t-93.5 13q-29 0 -56 -4v-104q20 4 46 4q32 0 43 -15t11 -58v-171q0 -68 16.5 -98z" />
    <glyph glyph-name="asciitilde" unicode="~" horiz-adv-x="550" 
d="M314 275.5q-23 10.5 -54 30.5q-23 16 -38 23t-32 7q-25 0 -46.5 -13.5t-55.5 -43.5l-50 69q38 43 72 65t76 22q32 0 56.5 -10.5t54.5 -30.5q21 -15 36 -22t31 -7q26 0 47 12t52 38l49 -68q-37 -40 -70 -61t-74 -21q-31 0 -54 10.5z" />
    <glyph glyph-name="DEL" horiz-adv-x="600" 
 />
    <glyph glyph-name="uni00A0" unicode="&#xa0;" horiz-adv-x="220" 
 />
    <glyph glyph-name="exclamdown" unicode="&#xa1;" horiz-adv-x="284" 
d="M80 758h124v-161h-124v161zM93 528h98l17 -528h-132z" />
    <glyph glyph-name="cent" unicode="&#xa2;" horiz-adv-x="550" 
d="M384 -13v-83h-101v82q-114 13 -174 89t-60 199q0 122 60 197t174 88v82h101v-82q47 -4 99 -24v-108q-48 23 -99 29v-365q48 8 107 39l34 -97q-68 -37 -141 -46zM283 93v359q-115 -29 -115 -177q0 -155 115 -182z" />
    <glyph glyph-name="sterling" unicode="&#xa3;" horiz-adv-x="550" 
d="M512 104v-104h-470v104h95v195h-65v104h65v79q0 76 18.5 120.5t61 65t118.5 20.5q31 0 64 -5t52 -13v-107q-45 21 -104 21q-55 0 -75.5 -22t-20.5 -81v-78h152v-104h-152v-195h261z" />
    <glyph glyph-name="currency" unicode="&#xa4;" horiz-adv-x="550" 
d="M42 164l74 75q-29 45 -29 97t28 96l-75 75l62 63l76 -75q44 26 94 26q53 0 98 -29l76 75l62 -63l-76 -76q26 -44 26 -92q0 -53 -28 -95l75 -75l-63 -63l-75 75q-43 -27 -95 -27q-49 0 -93 26l-75 -76zM344 260.5q30 31.5 30 75.5t-30 75.5t-72 31.5t-71.5 -31.5
t-29.5 -75.5t29.5 -75.5t71.5 -31.5t72 31.5z" />
    <glyph glyph-name="yen" unicode="&#xa5;" horiz-adv-x="550" 
d="M371 361h109v-89h-147v-67h147v-89h-147v-116h-116v116h-147v89h147v67h-147v89h109l-173 313h115l154 -285l155 285h115z" />
    <glyph glyph-name="brokenbar" unicode="&#xa6;" horiz-adv-x="316" 
d="M100 847h116v-376h-116v376zM100 247h116v-376h-116v376z" />
    <glyph glyph-name="section" unicode="&#xa7;" horiz-adv-x="550" 
d="M415 168q54 -42 54 -116q0 -73 -54 -113.5t-148 -40.5q-50 0 -91 6.5t-81 22.5v103q76 -35 172 -35q48 0 71 15.5t23 41.5t-19 40.5t-53 23.5l-82 23q-54 14 -90 31.5t-58.5 48.5t-22.5 80q0 88 98 127q-48 40 -48 111q0 74 52 112.5t143 38.5q52 0 92 -7.5t81 -25.5
v-102q-41 20 -82 29t-91 9q-43 0 -65 -14t-22 -40q0 -25 17 -37.5t49 -21.5l82 -23q79 -22 125.5 -56t46.5 -99q-1 -90 -99 -132zM329 208q77 24 77 79q0 28 -25.5 44.5t-78.5 31.5l-76 21q-2 0 -8 2q-74 -22 -74 -74q1 -23 10.5 -36.5t30.5 -23t62 -21.5l76 -21z" />
    <glyph glyph-name="dieresis" unicode="&#xa8;" horiz-adv-x="650" 
d="M377 798h104v-131h-104v131zM169 798h104v-131h-104v131z" />
    <glyph glyph-name="copyright" unicode="&#xa9;" horiz-adv-x="935" 
d="M266 34.5q-92 51.5 -145.5 141.5t-53.5 202q0 106 54 196.5t146 144t201 53.5q107 0 199 -53.5t146.5 -144t54.5 -196.5q0 -111 -54 -201.5t-146 -142t-200 -51.5q-110 0 -202 51.5zM621 106q71 41 114 112.5t43 159.5q0 83 -43 155t-114.5 114.5t-152.5 42.5
q-84 0 -155 -42.5t-113 -114t-42 -155.5q0 -88 41.5 -159.5t112.5 -112.5t156 -41q82 0 153 41zM357 184.5q-50 29.5 -75 80.5t-25 113q0 98 56 160t165 62q31 0 54.5 -4.5t49.5 -15.5v-91q-45 24 -104 24q-57 0 -90 -37.5t-33 -95.5q0 -65 32 -101t91 -36q30 0 58 7t60 21
l20 -81q-33 -17 -69 -26t-69 -9q-71 0 -121 29.5z" />
    <glyph glyph-name="ordfeminine" unicode="&#xaa;" horiz-adv-x="397" 
d="M293.5 666.5q34.5 -22.5 46.5 -61.5t12 -97v-224h-87v31q-47 -40 -107 -40q-58 0 -97.5 36t-39.5 97q0 66 40.5 102.5t108.5 36.5q50 0 95 -21q-2 42 -19 61t-64 19h-66v83h77q66 0 100.5 -22.5zM265 384v73q-35 13 -77 13q-31 0 -52 -13.5t-21 -46.5q0 -30 18.5 -44
t43.5 -14q43 0 88 32z" />
    <glyph glyph-name="guillemotleft" unicode="&#xab;" horiz-adv-x="751" 
d="M366 31zM467 270l176 -171l-71 -68l-206 198v82l206 198l71 -68zM206 270l176 -171l-71 -68l-206 198v82l206 198l71 -68z" />
    <glyph glyph-name="logicalnot" unicode="&#xac;" horiz-adv-x="550" 
d="M483 389v-260h-106v156h-310v104h416z" />
    <glyph glyph-name="registered" unicode="&#xae;" horiz-adv-x="721" 
d="M505.5 730q66.5 -39 105.5 -105t39 -142q0 -81 -39 -146.5t-105.5 -103t-144.5 -37.5q-80 0 -146.5 37t-105 103t-38.5 147q0 76 39 142t105.5 105t145.5 39q78 0 144.5 -39zM470.5 292q50.5 29 80.5 79.5t30 113.5q0 58 -30.5 108t-81 79.5t-108.5 29.5
q-60 0 -110.5 -30t-80.5 -80t-30 -109q0 -62 29.5 -112.5t80.5 -79t111 -28.5q59 0 109.5 29zM424 444l67 -106h-77l-58 96h-40v-96h-67v290h117q55 0 83 -23t28 -73q0 -68 -53 -88zM316 492h41q29 0 40 8.5t11 31.5q0 21 -11 29.5t-40 8.5h-41v-78z" />
    <glyph glyph-name="macron" unicode="&#xaf;" horiz-adv-x="649" 
d="M170 772h309v-78h-309v78z" />
    <glyph glyph-name="degree" unicode="&#xb0;" horiz-adv-x="473" 
d="M137 326q-46 27 -73 73t-27 100t27 99.5t73 72.5t100 27t100 -26.5t72.5 -72t26.5 -100.5q0 -54 -27 -100t-72.5 -73t-99.5 -27t-100 27zM309.5 422.5q28.5 31.5 28.5 76.5q0 46 -28.5 76.5t-72.5 30.5t-73 -31t-29 -76t29 -76.5t73 -31.5t72.5 31.5z" />
    <glyph glyph-name="plusminus" unicode="&#xb1;" horiz-adv-x="550" 
d="M67 0zM483 285h-155v-156l-106 -1v157h-155v104h155v155l106 1v-156h155v-104zM67 79h416v-104h-416v104z" />
    <glyph glyph-name="uni00B2" unicode="&#xb2;" horiz-adv-x="390" 
d="M44 210q88 96 132.5 148t67 93t22.5 77q0 38 -20.5 58t-60.5 20q-64 0 -124 -30v80q61 27 125 27q76 0 121 -39.5t45 -112.5q0 -46 -26 -96t-67.5 -100.5t-111.5 -124.5h219v-79h-322v79z" />
    <glyph glyph-name="uni00B3" unicode="&#xb3;" horiz-adv-x="390" 
d="M332.5 364.5q22.5 -33.5 22.5 -76.5q0 -80 -49.5 -124t-135.5 -44q-71 0 -123 20v80q55 -23 118 -23q47 0 75 24t28 69q0 42 -30.5 64t-88.5 22h-45v82h45q112 0 112 81q0 31 -23.5 49t-67.5 18q-65 0 -116 -20v79q50 18 116 18q88 0 133 -38.5t45 -105.5q0 -81 -82 -122
q44 -19 66.5 -52.5z" />
    <glyph glyph-name="acute" unicode="&#xb4;" horiz-adv-x="650" 
d="M338 809h133l-121 -153h-115z" />
    <glyph glyph-name="paragraph" unicode="&#xb6;" horiz-adv-x="720" 
d="M314 284h-29q-121 0 -181.5 60.5t-60.5 175.5q0 238 242 238h335v-858h-106v756h-94v-756h-106v384z" />
    <glyph glyph-name="periodcentered" unicode="&#xb7;" horiz-adv-x="284" 
d="M80 428h124v-166h-124v166z" />
    <glyph glyph-name="cedilla" unicode="&#xb8;" horiz-adv-x="650" 
d="M425.5 -85q28.5 -27 28.5 -71q0 -49 -34 -78t-98 -29q-29 0 -53 4t-49 16v71q46 -21 92 -21q29 0 42.5 10t13.5 25q0 32 -53 32q-40 0 -79 -14l41 141h81l-19 -59h6q52 0 80.5 -27z" />
    <glyph glyph-name="uni00B9" unicode="&#xb9;" horiz-adv-x="390" 
d="M320 210v-79h-250v79h83v384h-69v79h153v-463h83z" />
    <glyph glyph-name="ordmasculine" unicode="&#xba;" horiz-adv-x="517" 
d="M148 303.5q-47 28.5 -71.5 77t-24.5 109.5q0 60 24.5 108.5t71.5 76.5t111 28q65 0 111.5 -28t70.5 -76.5t24 -108.5q0 -61 -24 -109.5t-70.5 -77t-111.5 -28.5q-64 0 -111 28.5zM345.5 396q28.5 37 28.5 94t-28.5 93t-86.5 36q-57 0 -86.5 -36.5t-29.5 -92.5
q0 -57 29.5 -94t86.5 -37q58 0 86.5 37z" />
    <glyph glyph-name="guillemotright" unicode="&#xbb;" horiz-adv-x="751" 
d="M108 31zM284 270l-176 -171l71 -68l206 198v82l-206 198l-71 -68zM545 270l-176 -171l71 -68l206 198v82l-206 198l-71 -68z" />
    <glyph glyph-name="onequarter" unicode="&#xbc;" horiz-adv-x="1067" 
d="M70 0zM320 210v-79h-250v79h83v384h-69v79h153v-463h83zM716 773h98l-417 -806h-98zM1057 191h-62v-126h-84v126h-219v77l215 348h88v-348h62v-77zM911 268v213l-132 -213h132z" />
    <glyph glyph-name="onehalf" unicode="&#xbd;" horiz-adv-x="1101" 
d="M70 0zM320 210v-79h-250v79h83v384h-69v79h153v-463h83zM716 773h98l-417 -806h-98zM755 144q88 96 132.5 148t67 93t22.5 77q0 38 -20.5 58t-60.5 20q-64 0 -124 -30v80q61 27 125 27q76 0 121 -39.5t45 -112.5q0 -46 -26 -96t-67.5 -100.5t-111.5 -124.5h219v-79h-322
v79z" />
    <glyph glyph-name="threequarters" unicode="&#xbe;" horiz-adv-x="1065" 
d="M47 0zM332.5 364.5q22.5 -33.5 22.5 -76.5q0 -80 -49.5 -124t-135.5 -44q-71 0 -123 20v80q55 -23 118 -23q47 0 75 24t28 69q0 42 -30.5 64t-88.5 22h-45v82h45q112 0 112 81q0 31 -23.5 49t-67.5 18q-65 0 -116 -20v79q50 18 116 18q88 0 133 -38.5t45 -105.5
q0 -81 -82 -122q44 -19 66.5 -52.5zM713 773h98l-417 -806h-98zM1055 191h-62v-126h-84v126h-219v77l215 348h88v-348h62v-77zM909 268v213l-132 -213h132z" />
    <glyph glyph-name="questiondown" unicode="&#xbf;" horiz-adv-x="525" 
d="M266 683h60v-10h-60v10zM119 36.5q-62 50.5 -62 143.5q0 59 23.5 96t68.5 76l28 24q36 31 48.5 52t12.5 57v43h116v-51q0 -57 -20 -90t-67 -73l-38 -32q-31 -26 -42.5 -45.5t-11.5 -48.5q0 -48 30.5 -74t83.5 -26q92 0 174 41v-106q-46 -21 -90.5 -29t-93.5 -8
q-98 0 -160 50.5z" />
    <glyph glyph-name="Agrave" unicode="&#xc0;" horiz-adv-x="754" 
d="M28 0zM532 204h-311l-73 -204h-120l280 767h138l281 -767h-120zM494 308l-117 324l-118 -324h235zM209 989h133l103 -153h-115z" />
    <glyph glyph-name="Aacute" unicode="&#xc1;" horiz-adv-x="754" 
d="M28 0zM532 204h-311l-73 -204h-120l280 767h138l281 -767h-120zM494 308l-117 324l-118 -324h235zM421 989h133l-121 -153h-115z" />
    <glyph glyph-name="Acircumflex" unicode="&#xc2;" horiz-adv-x="754" 
d="M28 0zM532 204h-311l-73 -204h-120l280 767h138l281 -767h-120zM494 308l-117 324l-118 -324h235zM437 836l-60 105l-61 -105h-118l106 153h145l106 -153h-118z" />
    <glyph glyph-name="Atilde" unicode="&#xc3;" horiz-adv-x="754" 
d="M28 0zM532 204h-311l-73 -204h-120l280 767h138l281 -767h-120zM494 308l-117 324l-118 -324h235zM302 970q28 0 58 -13l37 -16q26 -10 35 -10q25 0 25 39h85q-1 -121 -90 -121q-28 0 -58 13l-37 16q-24 10 -35 10q-26 0 -26 -39h-85q2 121 91 121z" />
    <glyph glyph-name="Adieresis" unicode="&#xc4;" horiz-adv-x="754" 
d="M28 0zM532 204h-311l-73 -204h-120l280 767h138l281 -767h-120zM494 308l-117 324l-118 -324h235zM430 978h104v-131h-104v131zM222 978h104v-131h-104v131z" />
    <glyph glyph-name="Aring" unicode="&#xc5;" horiz-adv-x="754" 
d="M28 0zM532 204h-311l-73 -204h-120l280 767h138l281 -767h-120zM494 308l-117 324l-118 -324h235zM297.5 846q-28.5 26 -28.5 66q0 41 28 66t80 25t79.5 -25t27.5 -66t-28 -66.5t-79 -25.5t-79.5 26zM407 883.5q11 10.5 11 28.5t-11 28.5t-30 10.5t-30.5 -10.5
t-11.5 -28.5t11.5 -28.5t30.5 -10.5t30 10.5z" />
    <glyph glyph-name="AE" unicode="&#xc6;" horiz-adv-x="1091" 
d="M1031 99v-99h-475v229h-258l-138 -229h-130l466 758h530v-99h-352v-228h302v-99h-302v-233h357zM556 328v328l-198 -328h198z" />
    <glyph glyph-name="Ccedilla" unicode="&#xc7;" horiz-adv-x="708" 
d="M523 -85q28 -27 28 -71q0 -49 -33.5 -78t-98.5 -29q-29 0 -53 4t-49 16v71q46 -21 92 -21q29 0 42.5 10t13.5 25q0 32 -52 32q-40 0 -80 -14l37 126q-158 17 -238.5 121t-80.5 271q0 112 42 201t127 141t209 52q53 0 94.5 -8.5t89.5 -28.5v-106q-82 41 -181 41
q-79 0 -138.5 -37.5t-91 -103.5t-31.5 -151q1 -87 31 -153t88 -103t139 -37q52 0 102 15t106 43l36 -99q-53 -27 -111 -42.5t-113 -18.5l-13 -41h7q52 0 80 -27z" />
    <glyph glyph-name="Egrave" unicode="&#xc8;" horiz-adv-x="635" 
d="M100 0zM575 99v-99h-475v758h470v-99h-352v-228h302v-99h-302v-233h357zM167 989h133l103 -153h-115z" />
    <glyph glyph-name="Eacute" unicode="&#xc9;" horiz-adv-x="635" 
d="M100 0zM575 99v-99h-475v758h470v-99h-352v-228h302v-99h-302v-233h357zM379 989h133l-121 -153h-115z" />
    <glyph glyph-name="Ecircumflex" unicode="&#xca;" horiz-adv-x="635" 
d="M100 0zM575 99v-99h-475v758h470v-99h-352v-228h302v-99h-302v-233h357zM395 836l-60 105l-61 -105h-118l106 153h145l106 -153h-118z" />
    <glyph glyph-name="Edieresis" unicode="&#xcb;" horiz-adv-x="635" 
d="M100 0zM575 99v-99h-475v758h470v-99h-352v-228h302v-99h-302v-233h357zM388 978h104v-131h-104v131zM180 978h104v-131h-104v131z" />
    <glyph glyph-name="Igrave" unicode="&#xcc;" horiz-adv-x="318" 
d="M0 0zM100 758h118v-758h-118v758zM-9 989h133l103 -153h-115z" />
    <glyph glyph-name="Iacute" unicode="&#xcd;" horiz-adv-x="318" 
d="M100 0zM100 758h118v-758h-118v758zM203 989h133l-121 -153h-115z" />
    <glyph glyph-name="Icircumflex" unicode="&#xce;" horiz-adv-x="318" 
d="M0 0zM100 758h118v-758h-118v758zM219 836l-60 105l-61 -105h-118l106 153h145l106 -153h-118z" />
    <glyph glyph-name="Idieresis" unicode="&#xcf;" horiz-adv-x="318" 
d="M4 0zM100 758h118v-758h-118v758zM212 978h104v-131h-104v131zM4 978h104v-131h-104v131z" />
    <glyph glyph-name="Eth" unicode="&#xd0;" horiz-adv-x="798" 
d="M646 661.5q98 -96.5 98 -283.5q0 -188 -97.5 -283t-290.5 -95h-256v336h-83v90h83v332h256q192 0 290 -96.5zM557 589.5q-67 66.5 -201 66.5h-138v-230h177v-90h-177v-234h138q135 0 201.5 67t66.5 212q0 142 -67 208.5z" />
    <glyph glyph-name="Ntilde" unicode="&#xd1;" horiz-adv-x="797" 
d="M100 0zM697 758v-758h-131l-348 564v-564h-118v758h131l348 -564v564h118zM332 970q28 0 58 -13l37 -16q26 -10 35 -10q25 0 25 39h85q-1 -121 -90 -121q-28 0 -58 13l-37 16q-24 10 -35 10q-26 0 -26 -39h-85q2 121 91 121z" />
    <glyph glyph-name="Ograve" unicode="&#xd2;" horiz-adv-x="839" 
d="M51 0zM218 34.5q-83 51.5 -125 141t-42 202.5q0 111 42 200t125 141.5t202 52.5q118 0 201 -52.5t125 -142t42 -199.5q0 -113 -42 -202.5t-125 -141t-201 -51.5q-119 0 -202 51.5zM553.5 123.5q55.5 38.5 84.5 105.5t29 152q0 81 -29 147t-85 104t-133 38
q-80 0 -135.5 -38.5t-84 -104.5t-28.5 -149q0 -84 28.5 -150.5t84 -104.5t135.5 -38q78 0 133.5 38.5zM253 989h133l103 -153h-115z" />
    <glyph glyph-name="Oacute" unicode="&#xd3;" horiz-adv-x="839" 
d="M51 0zM218 34.5q-83 51.5 -125 141t-42 202.5q0 111 42 200t125 141.5t202 52.5q118 0 201 -52.5t125 -142t42 -199.5q0 -113 -42 -202.5t-125 -141t-201 -51.5q-119 0 -202 51.5zM553.5 123.5q55.5 38.5 84.5 105.5t29 152q0 81 -29 147t-85 104t-133 38
q-80 0 -135.5 -38.5t-84 -104.5t-28.5 -149q0 -84 28.5 -150.5t84 -104.5t135.5 -38q78 0 133.5 38.5zM464 989h133l-121 -153h-115z" />
    <glyph glyph-name="Ocircumflex" unicode="&#xd4;" horiz-adv-x="839" 
d="M51 0zM218 34.5q-83 51.5 -125 141t-42 202.5q0 111 42 200t125 141.5t202 52.5q118 0 201 -52.5t125 -142t42 -199.5q0 -113 -42 -202.5t-125 -141t-201 -51.5q-119 0 -202 51.5zM553.5 123.5q55.5 38.5 84.5 105.5t29 152q0 81 -29 147t-85 104t-133 38
q-80 0 -135.5 -38.5t-84 -104.5t-28.5 -149q0 -84 28.5 -150.5t84 -104.5t135.5 -38q78 0 133.5 38.5zM480 836l-60 105l-61 -105h-118l106 153h145l106 -153h-118z" />
    <glyph glyph-name="Otilde" unicode="&#xd5;" horiz-adv-x="839" 
d="M51 0zM218 34.5q-83 51.5 -125 141t-42 202.5q0 111 42 200t125 141.5t202 52.5q118 0 201 -52.5t125 -142t42 -199.5q0 -113 -42 -202.5t-125 -141t-201 -51.5q-119 0 -202 51.5zM553.5 123.5q55.5 38.5 84.5 105.5t29 152q0 81 -29 147t-85 104t-133 38
q-80 0 -135.5 -38.5t-84 -104.5t-28.5 -149q0 -84 28.5 -150.5t84 -104.5t135.5 -38q78 0 133.5 38.5zM345 970q28 0 58 -13l37 -16q26 -10 35 -10q25 0 25 39h85q-1 -121 -90 -121q-28 0 -58 13l-37 16q-24 10 -35 10q-26 0 -26 -39h-85q2 121 91 121z" />
    <glyph glyph-name="Odieresis" unicode="&#xd6;" horiz-adv-x="839" 
d="M51 0zM218 34.5q-83 51.5 -125 141t-42 202.5q0 111 42 200t125 141.5t202 52.5q118 0 201 -52.5t125 -142t42 -199.5q0 -113 -42 -202.5t-125 -141t-201 -51.5q-119 0 -202 51.5zM553.5 123.5q55.5 38.5 84.5 105.5t29 152q0 81 -29 147t-85 104t-133 38
q-80 0 -135.5 -38.5t-84 -104.5t-28.5 -149q0 -84 28.5 -150.5t84 -104.5t135.5 -38q78 0 133.5 38.5zM473 978h104v-131h-104v131zM265 978h104v-131h-104v131z" />
    <glyph glyph-name="Oslash" unicode="&#xd8;" horiz-adv-x="839" 
d="M726 615q62 -100 62 -237q0 -113 -42 -202.5t-125 -141t-201 -51.5q-149 0 -244 82l-72 -72l-70 67l79 79q-62 100 -62 239q0 111 42 200t125 141.5t202 52.5q147 0 243 -83l76 76l69 -68zM200 227l382 381q-65 62 -162 62q-80 0 -135.5 -38.5t-84 -104.5t-28.5 -149
t28 -151zM638 527l-382 -382q65 -60 164 -60q77 0 133 38t84.5 104.5t29.5 150.5q0 83 -29 149z" />
    <glyph glyph-name="Ugrave" unicode="&#xd9;" horiz-adv-x="793" 
d="M98 0zM172.5 59q-74.5 76 -74.5 214v485h118v-485q0 -93 45.5 -140.5t135.5 -47.5t135.5 47.5t45.5 140.5v485h118v-485q0 -139 -74.5 -214.5t-224.5 -75.5t-224.5 76zM229 989h133l103 -153h-115z" />
    <glyph glyph-name="Uacute" unicode="&#xda;" horiz-adv-x="793" 
d="M98 0zM172.5 59q-74.5 76 -74.5 214v485h118v-485q0 -93 45.5 -140.5t135.5 -47.5t135.5 47.5t45.5 140.5v485h118v-485q0 -139 -74.5 -214.5t-224.5 -75.5t-224.5 76zM441 989h133l-121 -153h-115z" />
    <glyph glyph-name="Ucircumflex" unicode="&#xdb;" horiz-adv-x="793" 
d="M98 0zM172.5 59q-74.5 76 -74.5 214v485h118v-485q0 -93 45.5 -140.5t135.5 -47.5t135.5 47.5t45.5 140.5v485h118v-485q0 -139 -74.5 -214.5t-224.5 -75.5t-224.5 76zM457 836l-60 105l-61 -105h-118l106 153h145l106 -153h-118z" />
    <glyph glyph-name="Udieresis" unicode="&#xdc;" horiz-adv-x="793" 
d="M98 0zM450 978h104v-131h-104v131zM242 978h104v-131h-104v131zM172.5 59q-74.5 76 -74.5 214v485h118v-485q0 -93 45.5 -140.5t135.5 -47.5t135.5 47.5t45.5 140.5v485h118v-485q0 -139 -74.5 -214.5t-224.5 -75.5t-224.5 76z" />
    <glyph glyph-name="Yacute" unicode="&#xdd;" horiz-adv-x="718" 
d="M28 0zM417 293v-293h-116v293l-273 465h120l211 -365l212 365h120zM403 989h133l-121 -153h-115z" />
    <glyph glyph-name="Thorn" unicode="&#xde;" horiz-adv-x="642" 
d="M634 384q0 -113 -64.5 -172t-193.5 -59h-158v-153h-118v758h118v-141h158q258 0 258 -233zM480 484.5q-34 30.5 -104 30.5h-158v-260h158q70 0 104 32.5t34 99.5t-34 97.5z" />
    <glyph glyph-name="germandbls" unicode="&#xdf;" horiz-adv-x="637" 
d="M343 -12q-29 5 -61 19v102q34 -15 59 -21t50 -6q95 0 96 76q0 31 -21 49t-64 39q-40 19 -65 36.5t-43 48.5t-18 79q0 43 13.5 71.5t39.5 65.5q25 36 36.5 61t11.5 60q0 46 -20.5 66.5t-63.5 20.5q-49 0 -71.5 -24t-22.5 -83v-648h-114v648q0 111 53 161t160 50
q90 0 141.5 -48t51.5 -136q0 -59 -16.5 -98.5t-46.5 -81.5q-19 -30 -27.5 -46.5t-8.5 -36.5q0 -26 19 -42t61 -39q40 -21 66.5 -40t45.5 -51.5t19 -79.5q-2 -87 -55 -132t-142 -45q-34 0 -63 5z" />
    <glyph glyph-name="agrave" unicode="&#xe0;" horiz-adv-x="556" 
d="M33 0zM410 526.5q49 -29.5 65 -79t16 -124.5v-323h-114v53q-37 -35 -74 -50.5t-80 -15.5q-84 0 -137 50.5t-53 138.5q0 90 56 139.5t151 49.5q74 0 136 -32q-1 43 -9.5 69t-35 40t-78.5 14h-84v100h99q93 0 142 -29.5zM377 141v107q-56 28 -116 28q-49 0 -80.5 -23
t-31.5 -76q0 -51 27 -73.5t65 -22.5q66 0 136 60zM106 809h133l103 -153h-115z" />
    <glyph glyph-name="aacute" unicode="&#xe1;" horiz-adv-x="556" 
d="M33 0zM410 526.5q49 -29.5 65 -79t16 -124.5v-323h-114v53q-37 -35 -74 -50.5t-80 -15.5q-84 0 -137 50.5t-53 138.5q0 90 56 139.5t151 49.5q74 0 136 -32q-1 43 -9.5 69t-35 40t-78.5 14h-84v100h99q93 0 142 -29.5zM377 141v107q-56 28 -116 28q-49 0 -80.5 -23
t-31.5 -76q0 -51 27 -73.5t65 -22.5q66 0 136 60zM322 809h133l-121 -153h-115z" />
    <glyph glyph-name="acircumflex" unicode="&#xe2;" horiz-adv-x="556" 
d="M33 0zM410 526.5q49 -29.5 65 -79t16 -124.5v-323h-114v53q-37 -35 -74 -50.5t-80 -15.5q-84 0 -137 50.5t-53 138.5q0 90 56 139.5t151 49.5q74 0 136 -32q-1 43 -9.5 69t-35 40t-78.5 14h-84v100h99q93 0 142 -29.5zM377 141v107q-56 28 -116 28q-49 0 -80.5 -23
t-31.5 -76q0 -51 27 -73.5t65 -22.5q66 0 136 60zM339 656l-60 105l-61 -105h-118l106 153h145l106 -153h-118z" />
    <glyph glyph-name="atilde" unicode="&#xe3;" horiz-adv-x="556" 
d="M33 0zM410 526.5q49 -29.5 65 -79t16 -124.5v-323h-114v53q-37 -35 -74 -50.5t-80 -15.5q-84 0 -137 50.5t-53 138.5q0 90 56 139.5t151 49.5q74 0 136 -32q-1 43 -9.5 69t-35 40t-78.5 14h-84v100h99q93 0 142 -29.5zM377 141v107q-56 28 -116 28q-49 0 -80.5 -23
t-31.5 -76q0 -51 27 -73.5t65 -22.5q66 0 136 60zM204 790q28 0 58 -13l37 -16q26 -10 35 -10q25 0 25 39h85q-1 -121 -90 -121q-28 0 -58 13l-37 16q-24 10 -35 10q-26 0 -26 -39h-85q2 121 91 121z" />
    <glyph glyph-name="adieresis" unicode="&#xe4;" horiz-adv-x="556" 
d="M33 0zM410 526.5q49 -29.5 65 -79t16 -124.5v-323h-114v53q-37 -35 -74 -50.5t-80 -15.5q-84 0 -137 50.5t-53 138.5q0 90 56 139.5t151 49.5q74 0 136 -32q-1 43 -9.5 69t-35 40t-78.5 14h-84v100h99q93 0 142 -29.5zM377 141v107q-56 28 -116 28q-49 0 -80.5 -23
t-31.5 -76q0 -51 27 -73.5t65 -22.5q66 0 136 60zM332 798h104v-131h-104v131zM124 798h104v-131h-104v131z" />
    <glyph glyph-name="aring" unicode="&#xe5;" horiz-adv-x="556" 
d="M33 0zM410 526.5q49 -29.5 65 -79t16 -124.5v-323h-114v53q-37 -35 -74 -50.5t-80 -15.5q-84 0 -137 50.5t-53 138.5q0 90 56 139.5t151 49.5q74 0 136 -32q-1 43 -9.5 69t-35 40t-78.5 14h-84v100h99q93 0 142 -29.5zM377 141v107q-56 28 -116 28q-49 0 -80.5 -23
t-31.5 -76q0 -51 27 -73.5t65 -22.5q66 0 136 60zM199.5 666q-28.5 26 -28.5 66q0 41 28 66t80 25t79.5 -25t27.5 -66t-28 -66.5t-79 -25.5t-79.5 26zM309 703.5q11 10.5 11 28.5t-11 28.5t-30 10.5t-30.5 -10.5t-11.5 -28.5t11.5 -28.5t30.5 -10.5t30 10.5z" />
    <glyph glyph-name="ae" unicode="&#xe6;" horiz-adv-x="916" 
d="M541 131q42 -48 131 -49q39 0 77 10.5t83 31.5l32 -92q-47 -26 -96 -37.5t-108 -11.5q-75 0 -132 25.5t-94 73.5q-51 -51 -102 -73t-109 -22q-84 0 -137 50.5t-53 138.5q0 90 56 139.5t151 49.5q74 0 136 -32q-1 43 -9.5 69t-35 40t-78.5 14h-84v100h99q72 0 115 -20.5
t64 -58.5q33 47 83 71t111 24q108 0 171.5 -69t63.5 -199v-45h-381q4 -80 46 -128zM500 351h256q-5 63 -35 92.5t-87 29.5q-110 0 -134 -122zM394 157q-14 44 -17 91q-56 28 -116 28q-49 0 -80.5 -23t-31.5 -76q0 -51 27 -73.5t65 -22.5q76 0 153 76z" />
    <glyph glyph-name="ccedilla" unicode="&#xe7;" horiz-adv-x="546" 
d="M421 -85q28 -27 28 -71q0 -49 -33.5 -78t-98.5 -29q-29 0 -53 4t-49 16v71q46 -21 92 -21q29 0 42.5 10t13.5 25q0 32 -52 32q-40 0 -80 -14l37 127q-106 17 -161.5 93.5t-55.5 198.5q0 137 70.5 214.5t202.5 78.5q46 0 79.5 -6t71.5 -21v-108q-37 17 -69.5 24t-71.5 7
q-164 -1 -164 -188q0 -89 38.5 -140.5t123.5 -52.5q71 0 151 43l34 -97q-82 -45 -170 -49l-13 -42h7q52 0 80 -27z" />
    <glyph glyph-name="egrave" unicode="&#xe8;" horiz-adv-x="591" 
d="M51 0zM216 130q42 -48 131 -48q39 0 77 10.5t83 31.5l32 -92q-47 -26 -96 -37.5t-108 -11.5q-91 0 -154.5 37t-96.5 104t-33 155q0 93 34 159t93 100t131 34q113 0 177.5 -68.5t64.5 -199.5v-45h-381q4 -81 46 -129zM175 351h256q-5 63 -35 92.5t-87 29.5
q-110 0 -134 -122zM136 809h133l103 -153h-115z" />
    <glyph glyph-name="eacute" unicode="&#xe9;" horiz-adv-x="591" 
d="M51 0zM216 130q42 -48 131 -48q39 0 77 10.5t83 31.5l32 -92q-47 -26 -96 -37.5t-108 -11.5q-91 0 -154.5 37t-96.5 104t-33 155q0 93 34 159t93 100t131 34q113 0 177.5 -68.5t64.5 -199.5v-45h-381q4 -81 46 -129zM175 351h256q-5 63 -35 92.5t-87 29.5
q-110 0 -134 -122zM352 809h133l-121 -153h-115z" />
    <glyph glyph-name="ecircumflex" unicode="&#xea;" horiz-adv-x="591" 
d="M51 0zM216 130q42 -48 131 -48q39 0 77 10.5t83 31.5l32 -92q-47 -26 -96 -37.5t-108 -11.5q-91 0 -154.5 37t-96.5 104t-33 155q0 93 34 159t93 100t131 34q113 0 177.5 -68.5t64.5 -199.5v-45h-381q4 -81 46 -129zM175 351h256q-5 63 -35 92.5t-87 29.5
q-110 0 -134 -122zM369 656l-60 105l-61 -105h-118l106 153h145l106 -153h-118z" />
    <glyph glyph-name="edieresis" unicode="&#xeb;" horiz-adv-x="591" 
d="M51 0zM216 130q42 -48 131 -48q39 0 77 10.5t83 31.5l32 -92q-47 -26 -96 -37.5t-108 -11.5q-91 0 -154.5 37t-96.5 104t-33 155q0 93 34 159t93 100t131 34q113 0 177.5 -68.5t64.5 -199.5v-45h-381q4 -81 46 -129zM175 351h256q-5 63 -35 92.5t-87 29.5
q-110 0 -134 -122zM362 798h104v-131h-104v131zM154 798h104v-131h-104v131z" />
    <glyph glyph-name="igrave" unicode="&#xec;" horiz-adv-x="284" 
d="M0 0zM85 556h114v-556h-114v556zM-32 809h133l103 -153h-115z" />
    <glyph glyph-name="iacute" unicode="&#xed;" horiz-adv-x="284" 
d="M81 0zM85 556h114v-556h-114v556zM184 809h133l-121 -153h-115z" />
    <glyph glyph-name="icircumflex" unicode="&#xee;" horiz-adv-x="284" 
d="M0 0zM85 556h114v-556h-114v556zM201 656l-60 105l-61 -105h-118l106 153h145l106 -153h-118z" />
    <glyph glyph-name="idieresis" unicode="&#xef;" horiz-adv-x="284" 
d="M0 0zM85 556h114v-556h-114v556zM194 798h104v-131h-104v131zM-14 798h104v-131h-104v131z" />
    <glyph glyph-name="eth" unicode="&#xf0;" horiz-adv-x="645" 
d="M548.5 561.5q45.5 -114.5 45.5 -242.5q0 -154 -70 -245t-201 -91q-126 0 -199 74.5t-73 216.5q0 151 70.5 222t177.5 71q69 0 141 -49q-38 97 -110 170l-79 -65l-52 56l73 61q-29 22 -66 43l86 79q33 -19 69 -47l70 59l54 -58l-66 -54q84 -86 129.5 -200.5zM472 399
q-75 64 -150 64q-67 0 -111 -41.5t-44 -147.5q0 -99 42 -143t114 -44q73 0 113.5 58.5t41.5 167.5q0 43 -6 86z" />
    <glyph glyph-name="ntilde" unicode="&#xf1;" horiz-adv-x="652" 
d="M85 0zM521 513.5q51 -54.5 51 -178.5v-335h-114v335q0 69 -25 99t-87 30q-72 0 -147 -63v-401h-114v556h114v-56q79 68 166 68q105 0 156 -54.5zM257 790q28 0 58 -13l37 -16q26 -10 35 -10q25 0 25 39h85q-1 -121 -90 -121q-28 0 -58 13l-37 16q-24 10 -35 10
q-26 0 -26 -39h-85q2 121 91 121z" />
    <glyph glyph-name="ograve" unicode="&#xf2;" horiz-adv-x="662" 
d="M51 0zM178 22q-63 39 -95 105.5t-32 150.5q0 83 32 150t95 105.5t154 38.5q90 0 153 -38.5t94.5 -105.5t31.5 -150q0 -84 -31.5 -150.5t-94.5 -105.5t-153 -39q-91 0 -154 39zM450.5 137q41.5 53 41.5 141q0 87 -41.5 140t-118.5 53q-78 0 -120 -53t-42 -140
q0 -88 42 -141t120 -53q77 0 118.5 53zM157 809h133l103 -153h-115z" />
    <glyph glyph-name="oacute" unicode="&#xf3;" horiz-adv-x="662" 
d="M51 0zM178 22q-63 39 -95 105.5t-32 150.5q0 83 32 150t95 105.5t154 38.5q90 0 153 -38.5t94.5 -105.5t31.5 -150q0 -84 -31.5 -150.5t-94.5 -105.5t-153 -39q-91 0 -154 39zM450.5 137q41.5 53 41.5 141q0 87 -41.5 140t-118.5 53q-78 0 -120 -53t-42 -140
q0 -88 42 -141t120 -53q77 0 118.5 53zM373 809h133l-121 -153h-115z" />
    <glyph glyph-name="ocircumflex" unicode="&#xf4;" horiz-adv-x="662" 
d="M51 0zM178 22q-63 39 -95 105.5t-32 150.5q0 83 32 150t95 105.5t154 38.5q90 0 153 -38.5t94.5 -105.5t31.5 -150q0 -84 -31.5 -150.5t-94.5 -105.5t-153 -39q-91 0 -154 39zM450.5 137q41.5 53 41.5 141q0 87 -41.5 140t-118.5 53q-78 0 -120 -53t-42 -140
q0 -88 42 -141t120 -53q77 0 118.5 53zM391 656l-60 105l-61 -105h-118l106 153h145l106 -153h-118z" />
    <glyph glyph-name="otilde" unicode="&#xf5;" horiz-adv-x="662" 
d="M51 0zM178 22q-63 39 -95 105.5t-32 150.5q0 83 32 150t95 105.5t154 38.5q90 0 153 -38.5t94.5 -105.5t31.5 -150q0 -84 -31.5 -150.5t-94.5 -105.5t-153 -39q-91 0 -154 39zM450.5 137q41.5 53 41.5 141q0 87 -41.5 140t-118.5 53q-78 0 -120 -53t-42 -140
q0 -88 42 -141t120 -53q77 0 118.5 53zM256 790q28 0 58 -13l37 -16q26 -10 35 -10q25 0 25 39h85q-1 -121 -90 -121q-28 0 -58 13l-37 16q-24 10 -35 10q-26 0 -26 -39h-85q2 121 91 121z" />
    <glyph glyph-name="odieresis" unicode="&#xf6;" horiz-adv-x="662" 
d="M51 0zM178 22q-63 39 -95 105.5t-32 150.5q0 83 32 150t95 105.5t154 38.5q90 0 153 -38.5t94.5 -105.5t31.5 -150q0 -84 -31.5 -150.5t-94.5 -105.5t-153 -39q-91 0 -154 39zM450.5 137q41.5 53 41.5 141q0 87 -41.5 140t-118.5 53q-78 0 -120 -53t-42 -140
q0 -88 42 -141t120 -53q77 0 118.5 53zM384 798h104v-131h-104v131zM176 798h104v-131h-104v131z" />
    <glyph glyph-name="divide" unicode="&#xf7;" horiz-adv-x="550" 
d="M67 39zM213 205h124v-166h-124v166zM67 389h416v-104h-416v104zM213 640h124v-166h-124v166z" />
    <glyph glyph-name="oslash" unicode="&#xf8;" horiz-adv-x="662" 
d="M571 444q40 -72 40 -166q0 -84 -31.5 -150.5t-94.5 -105.5t-153 -39q-111 0 -183 59l-52 -49l-66 62l60 57q-40 70 -40 166q0 83 32 150t95 105.5t154 38.5q111 0 181 -59l54 51l64 -63zM181 197l252 239q-41 35 -101 35q-78 0 -120 -53t-42 -140q0 -48 11 -81zM481 358
l-252 -239q41 -35 103 -35q77 0 118.5 53t41.5 141q0 42 -11 80z" />
    <glyph glyph-name="ugrave" unicode="&#xf9;" horiz-adv-x="652" 
d="M80 0zM567 556v-556h-114v55q-79 -67 -166 -67q-105 0 -156 55t-51 178v335h114v-335q0 -68 25.5 -98.5t87.5 -30.5q73 0 146 63v401h114zM150 809h133l103 -153h-115z" />
    <glyph glyph-name="uacute" unicode="&#xfa;" horiz-adv-x="652" 
d="M80 0zM567 556v-556h-114v55q-79 -67 -166 -67q-105 0 -156 55t-51 178v335h114v-335q0 -68 25.5 -98.5t87.5 -30.5q73 0 146 63v401h114zM366 809h133l-121 -153h-115z" />
    <glyph glyph-name="ucircumflex" unicode="&#xfb;" horiz-adv-x="652" 
d="M80 0zM567 556v-556h-114v55q-79 -67 -166 -67q-105 0 -156 55t-51 178v335h114v-335q0 -68 25.5 -98.5t87.5 -30.5q73 0 146 63v401h114zM383 656l-60 105l-61 -105h-118l106 153h145l106 -153h-118z" />
    <glyph glyph-name="udieresis" unicode="&#xfc;" horiz-adv-x="652" 
d="M80 0zM567 556v-556h-114v55q-79 -67 -166 -67q-105 0 -156 55t-51 178v335h114v-335q0 -68 25.5 -98.5t87.5 -30.5q73 0 146 63v401h114zM376 798h104v-131h-104v131zM168 798h104v-131h-104v131z" />
    <glyph glyph-name="yacute" unicode="&#xfd;" horiz-adv-x="565" 
d="M20 0zM545 556l-240 -645q-24 -66 -47.5 -100t-55 -48t-82.5 -14q-37 0 -69 9v101q27 -6 55 -6q36 0 56.5 19t41.5 73l21 57l-205 554h118l143 -404l151 404h113zM325 809h133l-121 -153h-115z" />
    <glyph glyph-name="thorn" unicode="&#xfe;" horiz-adv-x="623" 
d="M538 496.5q68 -75.5 68 -218.5q0 -144 -68 -219.5t-181 -75.5q-81 0 -158 64v-281h-114v1080h114v-338q77 64 158 64q113 0 181 -75.5zM450 135.5q38 48.5 38 142.5q0 93 -38 141.5t-112 48.5q-69 0 -139 -56v-269q70 -56 139 -56q74 0 112 48.5z" />
    <glyph glyph-name="ydieresis" unicode="&#xff;" horiz-adv-x="565" 
d="M20 0zM545 556l-240 -645q-24 -66 -47.5 -100t-55 -48t-82.5 -14q-37 0 -69 9v101q27 -6 55 -6q36 0 56.5 19t41.5 73l21 57l-205 554h118l143 -404l151 404h113zM335 798h104v-131h-104v131zM127 798h104v-131h-104v131z" />
    <glyph glyph-name="Amacron" unicode="&#x100;" horiz-adv-x="754" 
d="M28 0zM532 204h-311l-73 -204h-120l280 767h138l281 -767h-120zM494 308l-117 324l-118 -324h235zM222 952h309v-78h-309v78z" />
    <glyph glyph-name="amacron" unicode="&#x101;" horiz-adv-x="556" 
d="M33 0zM410 526.5q49 -29.5 65 -79t16 -124.5v-323h-114v53q-37 -35 -74 -50.5t-80 -15.5q-84 0 -137 50.5t-53 138.5q0 90 56 139.5t151 49.5q74 0 136 -32q-1 43 -9.5 69t-35 40t-78.5 14h-84v100h99q93 0 142 -29.5zM377 141v107q-56 28 -116 28q-49 0 -80.5 -23
t-31.5 -76q0 -51 27 -73.5t65 -22.5q66 0 136 60zM124 772h309v-78h-309v78z" />
    <glyph glyph-name="Abreve" unicode="&#x102;" horiz-adv-x="754" 
d="M28 0zM532 204h-311l-73 -204h-120l280 767h138l281 -767h-120zM494 308l-117 324l-118 -324h235zM261 868q-43 35 -43 105v14h90v-12q0 -35 17 -52t53 -17q37 0 53.5 17t16.5 52v12h90v-14q1 -70 -41.5 -105t-118.5 -35q-74 0 -117 35z" />
    <glyph glyph-name="abreve" unicode="&#x103;" horiz-adv-x="556" 
d="M33 0zM410 526.5q49 -29.5 65 -79t16 -124.5v-323h-114v53q-37 -35 -74 -50.5t-80 -15.5q-84 0 -137 50.5t-53 138.5q0 90 56 139.5t151 49.5q74 0 136 -32q-1 43 -9.5 69t-35 40t-78.5 14h-84v100h99q93 0 142 -29.5zM377 141v107q-56 28 -116 28q-49 0 -80.5 -23
t-31.5 -76q0 -51 27 -73.5t65 -22.5q66 0 136 60zM164 688q-43 35 -43 105v14h90v-12q0 -35 17 -52t53 -17q37 0 53.5 17t16.5 52v12h90v-14q1 -70 -41.5 -105t-118.5 -35q-74 0 -117 35z" />
    <glyph glyph-name="Aogonek" unicode="&#x104;" horiz-adv-x="754" 
d="M28 0zM532 204h-311l-73 -204h-120l280 767h138l281 -767h-120zM494 308l-117 324l-118 -324h235zM568.5 -218q-30.5 25 -30.5 68q0 78 92 150h97q-47 -36 -72.5 -68.5t-25.5 -64.5q0 -38 46 -38q28 0 52 12v-72q-33 -12 -67 -12q-61 0 -91.5 25z" />
    <glyph glyph-name="aogonek" unicode="&#x105;" horiz-adv-x="556" 
d="M410 526.5q49 -29.5 65 -79t16 -124.5v-323q-46 -36 -71.5 -68.5t-25.5 -64.5q0 -38 44 -38q28 0 53 12v-72q-35 -12 -67 -12q-60 0 -90.5 25t-30.5 68q0 78 93 150h-19v53q-37 -35 -74 -50.5t-80 -15.5q-84 0 -137 50.5t-53 138.5q0 90 56 139.5t151 49.5q74 0 136 -32
q-1 43 -9.5 69t-35 40t-78.5 14h-84v100h99q93 0 142 -29.5zM377 141v107q-56 28 -116 28q-49 0 -80.5 -23t-31.5 -76q0 -51 27 -73.5t65 -22.5q66 0 136 60z" />
    <glyph glyph-name="Cacute" unicode="&#x106;" horiz-adv-x="708" 
d="M51 0zM219.5 32q-84.5 49 -126.5 138t-42 208q0 112 42 201t127 141t209 52q53 0 94.5 -8.5t89.5 -28.5v-106q-82 41 -181 41q-79 0 -138.5 -37.5t-91 -103.5t-31.5 -151q1 -87 31 -153t88 -103t139 -37q52 0 102 15t106 43l36 -99q-58 -30 -122 -45.5t-122 -15.5
q-125 0 -209.5 49zM433 989h133l-121 -153h-115z" />
    <glyph glyph-name="cacute" unicode="&#x107;" horiz-adv-x="546" 
d="M51 0zM121.5 63q-70.5 79 -70.5 216t70.5 214.5t202.5 78.5q46 0 79.5 -6t71.5 -21v-108q-37 17 -69.5 24t-71.5 7q-164 -1 -164 -188q0 -89 38.5 -140.5t123.5 -52.5q71 0 151 43l34 -97q-89 -50 -193 -50q-132 1 -202.5 80zM351 809h133l-121 -153h-115z" />
    <glyph glyph-name="Cdotaccent" unicode="&#x10a;" horiz-adv-x="708" 
d="M51 0zM219.5 32q-84.5 49 -126.5 138t-42 208q0 112 42 201t127 141t209 52q53 0 94.5 -8.5t89.5 -28.5v-106q-82 41 -181 41q-79 0 -138.5 -37.5t-91 -103.5t-31.5 -151q1 -87 31 -153t88 -103t139 -37q52 0 102 15t106 43l36 -99q-58 -30 -122 -45.5t-122 -15.5
q-125 0 -209.5 49zM333 978h114v-131h-114v131z" />
    <glyph glyph-name="cdotaccent" unicode="&#x10b;" horiz-adv-x="546" 
d="M51 0zM121.5 63q-70.5 79 -70.5 216t70.5 214.5t202.5 78.5q46 0 79.5 -6t71.5 -21v-108q-37 17 -69.5 24t-71.5 7q-164 -1 -164 -188q0 -89 38.5 -140.5t123.5 -52.5q71 0 151 43l34 -97q-89 -50 -193 -50q-132 1 -202.5 80zM253 798h114v-131h-114v131z" />
    <glyph glyph-name="Ccaron" unicode="&#x10c;" horiz-adv-x="708" 
d="M51 0zM219.5 32q-84.5 49 -126.5 138t-42 208q0 112 42 201t127 141t209 52q53 0 94.5 -8.5t89.5 -28.5v-106q-82 41 -181 41q-79 0 -138.5 -37.5t-91 -103.5t-31.5 -151q1 -87 31 -153t88 -103t139 -37q52 0 102 15t106 43l36 -99q-58 -30 -122 -45.5t-122 -15.5
q-125 0 -209.5 49zM567 989l-106 -153h-145l-106 153h118l61 -105l60 105h118z" />
    <glyph glyph-name="ccaron" unicode="&#x10d;" horiz-adv-x="546" 
d="M51 0zM121.5 63q-70.5 79 -70.5 216t70.5 214.5t202.5 78.5q46 0 79.5 -6t71.5 -21v-108q-37 17 -69.5 24t-71.5 7q-164 -1 -164 -188q0 -89 38.5 -140.5t123.5 -52.5q71 0 151 43l34 -97q-89 -50 -193 -50q-132 1 -202.5 80zM486 809l-106 -153h-145l-106 153h118
l61 -105l60 105h118z" />
    <glyph glyph-name="Dcaron" unicode="&#x10e;" horiz-adv-x="798" 
d="M100 0zM646 661.5q98 -96.5 98 -283.5q0 -188 -97.5 -283t-290.5 -95h-256v758h256q192 0 290 -96.5zM557 589.5q-67 66.5 -201 66.5h-138v-554h138q135 0 201.5 67t66.5 212q0 142 -67 208.5zM561 989l-106 -153h-145l-106 153h118l61 -105l60 105h118z" />
    <glyph glyph-name="dcaron" unicode="&#x10f;" horiz-adv-x="657" 
d="M51 0zM572 846v-846h-114v47q-77 -64 -158 -64q-113 0 -181 75.5t-68 219.5q0 143 68 218.5t181 75.5q81 0 158 -64v338h114zM458 143v269q-70 56 -139 56q-74 0 -111.5 -48.5t-37.5 -141.5q0 -94 37.5 -142.5t111.5 -48.5q69 0 139 56zM668 753h114l-66 -202h-98z" />
    <glyph glyph-name="Dcroat" unicode="&#x110;" horiz-adv-x="798" 
d="M17 0zM646 661.5q98 -96.5 98 -283.5q0 -188 -97.5 -283t-290.5 -95h-256v336h-83v90h83v332h256q192 0 290 -96.5zM557 589.5q-67 66.5 -201 66.5h-138v-230h177v-90h-177v-234h138q135 0 201.5 67t66.5 212q0 142 -67 208.5z" />
    <glyph glyph-name="dcroat" unicode="&#x111;" horiz-adv-x="657" 
d="M639 646h-67v-646h-114v47q-77 -64 -158 -64q-113 0 -181 75.5t-68 219.5q0 143 68 218.5t181 75.5q81 0 158 -64v138h-170v88h170v112h114v-112h67v-88zM458 143v269q-70 56 -139 56q-74 0 -111.5 -48.5t-37.5 -141.5q0 -94 37.5 -142.5t111.5 -48.5q69 0 139 56z" />
    <glyph glyph-name="Emacron" unicode="&#x112;" horiz-adv-x="635" 
d="M100 0zM185 952h309v-78h-309v78zM575 99v-99h-475v758h470v-99h-352v-228h302v-99h-302v-233h357z" />
    <glyph glyph-name="emacron" unicode="&#x113;" horiz-adv-x="591" 
d="M51 0zM216 130q42 -48 131 -48q39 0 77 10.5t83 31.5l32 -92q-47 -26 -96 -37.5t-108 -11.5q-91 0 -154.5 37t-96.5 104t-33 155q0 93 34 159t93 100t131 34q113 0 177.5 -68.5t64.5 -199.5v-45h-381q4 -81 46 -129zM175 351h256q-5 63 -35 92.5t-87 29.5
q-110 0 -134 -122zM154 772h309v-78h-309v78z" />
    <glyph glyph-name="Edotaccent" unicode="&#x116;" horiz-adv-x="635" 
d="M100 0zM575 99v-99h-475v758h470v-99h-352v-228h302v-99h-302v-233h357zM279 978h114v-131h-114v131z" />
    <glyph glyph-name="edotaccent" unicode="&#x117;" horiz-adv-x="591" 
d="M51 0zM216 130q42 -48 131 -48q39 0 77 10.5t83 31.5l32 -92q-47 -26 -96 -37.5t-108 -11.5q-91 0 -154.5 37t-96.5 104t-33 155q0 93 34 159t93 100t131 34q113 0 177.5 -68.5t64.5 -199.5v-45h-381q4 -81 46 -129zM175 351h256q-5 63 -35 92.5t-87 29.5
q-110 0 -134 -122zM254 798h114v-131h-114v131z" />
    <glyph glyph-name="Eogonek" unicode="&#x118;" horiz-adv-x="635" 
d="M100 0zM575 99v-99h-475v758h470v-99h-352v-228h302v-99h-302v-233h357zM416.5 -218q-30.5 25 -30.5 68q0 78 92 150h97q-47 -36 -72.5 -68.5t-25.5 -64.5q0 -38 46 -38q28 0 52 12v-72q-33 -12 -67 -12q-61 0 -91.5 25z" />
    <glyph glyph-name="eogonek" unicode="&#x119;" horiz-adv-x="591" 
d="M216 130q42 -48 131 -48q39 0 77 10.5t83 31.5l32 -92q-25 -14 -49 -23q-52 -39 -80 -73t-28 -69q0 -18 11.5 -28t33.5 -10q28 0 53 12v-72q-34 -12 -67 -12q-61 0 -91.5 25t-30.5 68q0 71 69 134q-8 -1 -25 -1q-91 0 -154.5 37t-96.5 104t-33 155q0 93 34 159t93 100
t131 34q113 0 177.5 -68.5t64.5 -199.5v-45h-381q4 -81 46 -129zM175 351h256q-5 63 -35 92.5t-87 29.5q-110 0 -134 -122z" />
    <glyph glyph-name="Ecaron" unicode="&#x11a;" horiz-adv-x="635" 
d="M100 0zM575 99v-99h-475v758h470v-99h-352v-228h302v-99h-302v-233h357zM513 989l-106 -153h-145l-106 153h118l61 -105l60 105h118z" />
    <glyph glyph-name="ecaron" unicode="&#x11b;" horiz-adv-x="591" 
d="M51 0zM216 130q42 -48 131 -48q39 0 77 10.5t83 31.5l32 -92q-47 -26 -96 -37.5t-108 -11.5q-91 0 -154.5 37t-96.5 104t-33 155q0 93 34 159t93 100t131 34q113 0 177.5 -68.5t64.5 -199.5v-45h-381q4 -81 46 -129zM175 351h256q-5 63 -35 92.5t-87 29.5
q-110 0 -134 -122zM487 809l-106 -153h-145l-106 153h118l61 -105l60 105h118z" />
    <glyph glyph-name="Gbreve" unicode="&#x11e;" horiz-adv-x="768" 
d="M51 0zM690 463v-410q-60 -34 -130 -52t-131 -18q-123 0 -207.5 49.5t-127.5 138.5t-43 207q0 112 41 201t126 141t211 52q66 0 111.5 -12.5t102.5 -37.5v-109q-51 28 -100.5 42.5t-113.5 14.5q-80 0 -138.5 -37t-89 -102.5t-30.5 -149.5q0 -88 30 -154.5t88.5 -104
t139.5 -37.5q69 0 145 32v242h-259v104h375zM297 868q-43 35 -43 105v14h90v-12q0 -35 17 -52t53 -17q37 0 53.5 17t16.5 52v12h90v-14q1 -70 -41.5 -105t-118.5 -35q-74 0 -117 35z" />
    <glyph glyph-name="gbreve" unicode="&#x11f;" horiz-adv-x="643" 
d="M49 0zM570 556v-564q0 -113 -57 -178t-186 -65q-68 0 -118.5 8t-100.5 28v110q47 -21 95.5 -31.5t88.5 -10.5q67 0 102.5 17.5t48.5 49t13 82.5v65q-77 -64 -158 -64q-113 0 -181 72.5t-68 212.5q0 138 68 211t181 73q81 0 158 -64v48h114zM456 163v249q-71 56 -139 56
q-73 0 -111.5 -47.5t-38.5 -132.5q0 -181 150 -181q68 0 139 56zM208 688q-43 35 -43 105v14h90v-12q0 -35 17 -52t53 -17q37 0 53.5 17t16.5 52v12h90v-14q1 -70 -41.5 -105t-118.5 -35q-74 0 -117 35z" />
    <glyph glyph-name="Gdotaccent" unicode="&#x120;" horiz-adv-x="768" 
d="M51 0zM690 463v-410q-60 -34 -130 -52t-131 -18q-123 0 -207.5 49.5t-127.5 138.5t-43 207q0 112 41 201t126 141t211 52q66 0 111.5 -12.5t102.5 -37.5v-109q-51 28 -100.5 42.5t-113.5 14.5q-80 0 -138.5 -37t-89 -102.5t-30.5 -149.5q0 -88 30 -154.5t88.5 -104
t139.5 -37.5q69 0 145 32v242h-259v104h375zM358 978h114v-131h-114v131z" />
    <glyph glyph-name="gdotaccent" unicode="&#x121;" horiz-adv-x="643" 
d="M49 0zM570 556v-564q0 -113 -57 -178t-186 -65q-68 0 -118.5 8t-100.5 28v110q47 -21 95.5 -31.5t88.5 -10.5q67 0 102.5 17.5t48.5 49t13 82.5v65q-77 -64 -158 -64q-113 0 -181 72.5t-68 212.5q0 138 68 211t181 73q81 0 158 -64v48h114zM456 163v249q-71 56 -139 56
q-73 0 -111.5 -47.5t-38.5 -132.5q0 -181 150 -181q68 0 139 56zM268 798h114v-131h-114v131z" />
    <glyph glyph-name="Gcommaaccent" unicode="&#x122;" horiz-adv-x="768" 
d="M51 0zM690 463v-410q-60 -34 -130 -52t-131 -18q-123 0 -207.5 49.5t-127.5 138.5t-43 207q0 112 41 201t126 141t211 52q66 0 111.5 -12.5t102.5 -37.5v-109q-51 28 -100.5 42.5t-113.5 14.5q-80 0 -138.5 -37t-89 -102.5t-30.5 -149.5q0 -88 30 -154.5t88.5 -104
t139.5 -37.5q69 0 145 32v242h-259v104h375zM360 -80h120l-43 -166h-109z" />
    <glyph glyph-name="gcommaaccent" unicode="&#x123;" horiz-adv-x="643" 
d="M49 0zM570 556v-564q0 -113 -57 -178t-186 -65q-68 0 -118.5 8t-100.5 28v110q47 -21 95.5 -31.5t88.5 -10.5q67 0 102.5 17.5t48.5 49t13 82.5v65q-77 -64 -158 -64q-113 0 -181 72.5t-68 212.5q0 138 68 211t181 73q81 0 158 -64v48h114zM456 163v249q-71 56 -139 56
q-73 0 -111.5 -47.5t-38.5 -132.5q0 -181 150 -181q68 0 139 56zM307 843h109l-32 -166h-120z" />
    <glyph glyph-name="Hbar" unicode="&#x126;" horiz-adv-x="775" 
d="M697 758v-758h-118v329h-361v-329h-118v758h118v-115h361v115h118zM579 433v108h-361v-108h361z" />
    <glyph glyph-name="hbar" unicode="&#x127;" horiz-adv-x="652" 
d="M521 513.5q51 -54.5 51 -178.5v-335h-114v335q0 69 -25 99t-87 30q-74 0 -147 -63v-401h-114v646h-68v88h68v112h114v-112h169v-88h-169v-145q79 67 166 67q105 0 156 -54.5z" />
    <glyph glyph-name="Imacron" unicode="&#x12a;" horiz-adv-x="318" 
d="M4 0zM100 758h118v-758h-118v758zM4 952h309v-78h-309v78z" />
    <glyph glyph-name="imacron" unicode="&#x12b;" horiz-adv-x="284" 
d="M0 0zM85 556h114v-556h-114v556zM-14 772h309v-78h-309v78z" />
    <glyph glyph-name="Iogonek" unicode="&#x12e;" horiz-adv-x="318" 
d="M218 758v-758h-11q-47 -36 -72.5 -68.5t-25.5 -64.5q0 -38 46 -38q28 0 52 12v-72q-33 -12 -67 -12q-61 0 -91.5 25t-30.5 68q0 78 94 150h-12v758h118z" />
    <glyph glyph-name="iogonek" unicode="&#x12f;" horiz-adv-x="284" 
d="M199 808v-151h-114v151h114zM85 556h114v-556h-9q-46 -36 -71.5 -68.5t-25.5 -64.5q0 -38 44 -38q28 0 53 12v-72q-34 -12 -67 -12q-60 0 -90.5 25t-30.5 68q0 78 93 150h-10v556z" />
    <glyph glyph-name="Idotaccent" unicode="&#x130;" horiz-adv-x="318" 
d="M100 0zM100 758h118v-758h-118v758zM103 978h114v-131h-114v131z" />
    <glyph glyph-name="dotlessi" unicode="&#x131;" horiz-adv-x="284" 
d="M85 556h114v-556h-114v556z" />
    <glyph glyph-name="IJ" unicode="&#x132;" horiz-adv-x="651" 
d="M100 0zM100 758h118v-758h-118v758zM324 -125v102q20 -4 50 -4q24 0 36 8t17.5 30t5.5 65v682h118v-688q0 -81 -14 -123.5t-48 -60t-99 -17.5q-40 0 -66 6z" />
    <glyph glyph-name="ij" unicode="&#x133;" horiz-adv-x="568" 
d="M85 0zM85 808h114v-151h-114v151zM85 556h114v-556h-114v556zM369 808h114v-151h-114v151zM259 -242v101q23 -6 53 -6q33 0 45 18t12 69v618h114v-653q0 -84 -34 -120t-115 -36q-26 0 -75 9z" />
    <glyph glyph-name="Kcommaaccent" unicode="&#x136;" horiz-adv-x="701" 
d="M100 0zM265 324l-47 -51v-273h-118v758h118v-322l300 322h148l-322 -349l327 -409h-150zM283 -80h120l-43 -166h-109z" />
    <glyph glyph-name="kcommaaccent" unicode="&#x137;" horiz-adv-x="602" 
d="M85 0zM256 239l-57 -59v-180h-114v846h114v-523l214 223h140l-221 -229l250 -317h-138zM245 -80h120l-43 -166h-109z" />
    <glyph glyph-name="Lacute" unicode="&#x139;" horiz-adv-x="565" 
d="M97 0zM525 104v-104h-425v758h118v-654h307zM200 989h133l-121 -153h-115z" />
    <glyph glyph-name="lacute" unicode="&#x13a;" horiz-adv-x="334" 
d="M80 0zM120.5 19.5q-35.5 32.5 -35.5 103.5v723h114v-688q0 -38 12 -52.5t46 -14.5q30 0 52 6v-101q-39 -9 -74 -9q-79 0 -114.5 32.5zM183 1109h133l-121 -153h-115z" />
    <glyph glyph-name="Lcommaaccent" unicode="&#x13b;" horiz-adv-x="565" 
d="M100 0zM525 104v-104h-425v758h118v-654h307zM250 -80h120l-43 -166h-109z" />
    <glyph glyph-name="lcommaaccent" unicode="&#x13c;" horiz-adv-x="334" 
d="M85 0zM120.5 19.5q-35.5 32.5 -35.5 103.5v723h114v-688q0 -38 12 -52.5t46 -14.5q30 0 52 6v-101q-39 -9 -74 -9q-79 0 -114.5 32.5zM152 -80h120l-43 -166h-109z" />
    <glyph glyph-name="Lcaron" unicode="&#x13d;" horiz-adv-x="565" 
d="M100 0zM525 104v-104h-425v758h118v-654h307zM324 758h114l-66 -202h-98z" />
    <glyph glyph-name="lcaron" unicode="&#x13e;" horiz-adv-x="334" 
d="M85 0zM120.5 19.5q-35.5 32.5 -35.5 103.5v723h114v-688q0 -38 12 -52.5t46 -14.5q30 0 52 6v-101q-39 -9 -74 -9q-79 0 -114.5 32.5zM307 758h114l-66 -202h-98z" />
    <glyph glyph-name="Ldot" unicode="&#x13f;" horiz-adv-x="565" 
d="M525 104v-104h-425v758h118v-654h307zM464 306h-124v166h124v-166z" />
    <glyph glyph-name="ldot" unicode="&#x140;" horiz-adv-x="334" 
d="M85 0zM120.5 19.5q-35.5 32.5 -35.5 103.5v723h114v-688q0 -38 12 -52.5t46 -14.5q30 0 52 6v-101q-39 -9 -74 -9q-79 0 -114.5 32.5zM240 428h124v-166h-124v166z" />
    <glyph glyph-name="Lslash" unicode="&#x141;" horiz-adv-x="565" 
d="M525 104v-104h-425v262l-92 -37v102l92 37v394h118v-346l222 89v-102l-222 -89v-206h307z" />
    <glyph glyph-name="lslash" unicode="&#x142;" horiz-adv-x="334" 
d="M309 97v-101q-39 -9 -74 -9q-79 0 -114.5 32.5t-35.5 103.5v235l-79 -26v100l79 26v388h114v-350l109 37v-100l-109 -37v-238q0 -38 12 -52.5t46 -14.5q30 0 52 6z" />
    <glyph glyph-name="Nacute" unicode="&#x143;" horiz-adv-x="797" 
d="M100 0zM697 758v-758h-131l-348 564v-564h-118v758h131l348 -564v564h118zM451 989h133l-121 -153h-115z" />
    <glyph glyph-name="nacute" unicode="&#x144;" horiz-adv-x="652" 
d="M85 0zM521 513.5q51 -54.5 51 -178.5v-335h-114v335q0 69 -25 99t-87 30q-72 0 -147 -63v-401h-114v556h114v-56q79 68 166 68q105 0 156 -54.5zM374 809h133l-121 -153h-115z" />
    <glyph glyph-name="Ncommaaccent" unicode="&#x145;" horiz-adv-x="797" 
d="M100 0zM697 758v-758h-131l-348 564v-564h-118v758h131l348 -564v564h118zM306 -80h120l-43 -166h-109z" />
    <glyph glyph-name="ncommaaccent" unicode="&#x146;" horiz-adv-x="652" 
d="M85 0zM521 513.5q51 -54.5 51 -178.5v-335h-114v335q0 69 -25 99t-87 30q-72 0 -147 -63v-401h-114v556h114v-56q79 68 166 68q105 0 156 -54.5zM274 -80h120l-43 -166h-109z" />
    <glyph glyph-name="Ncaron" unicode="&#x147;" horiz-adv-x="797" 
d="M0 0zM697 758v-758h-131l-348 564v-564h-118v758h131l348 -564v564h118zM-4 980h114l-66 -202h-98z" />
    <glyph glyph-name="ncaron" unicode="&#x148;" horiz-adv-x="652" 
d="M0 0zM521 513.5q51 -54.5 51 -178.5v-335h-114v335q0 69 -25 99t-87 30q-72 0 -147 -63v-401h-114v556h114v-56q79 68 166 68q105 0 156 -54.5zM-24 758h114l-66 -202h-98z" />
    <glyph glyph-name="Eng" unicode="&#x14a;" horiz-adv-x="775" 
d="M697 758v-766q0 -81 -14 -123.5t-48 -60t-99 -17.5q-33 0 -66 6v103q25 -5 50 -5q24 0 36 8t17.5 30t5.5 65v5l-361 563v-566h-118v758h131l348 -550v550h118z" />
    <glyph glyph-name="eng" unicode="&#x14b;" horiz-adv-x="646" 
d="M521 513.5q51 -54.5 51 -178.5v-430q0 -84 -34 -120t-115 -36q-26 0 -75 9v101q24 -6 53 -6q33 0 45 18t12 69v395q0 69 -25 99t-87 30q-72 0 -147 -63v-401h-114v556h114v-56q79 68 166 68q105 0 156 -54.5z" />
    <glyph glyph-name="Omacron" unicode="&#x14c;" horiz-adv-x="839" 
d="M51 0zM218 34.5q-83 51.5 -125 141t-42 202.5q0 111 42 200t125 141.5t202 52.5q118 0 201 -52.5t125 -142t42 -199.5q0 -113 -42 -202.5t-125 -141t-201 -51.5q-119 0 -202 51.5zM553.5 123.5q55.5 38.5 84.5 105.5t29 152q0 81 -29 147t-85 104t-133 38
q-80 0 -135.5 -38.5t-84 -104.5t-28.5 -149q0 -84 28.5 -150.5t84 -104.5t135.5 -38q78 0 133.5 38.5zM265 952h309v-78h-309v78z" />
    <glyph glyph-name="omacron" unicode="&#x14d;" horiz-adv-x="662" 
d="M51 0zM178 22q-63 39 -95 105.5t-32 150.5q0 83 32 150t95 105.5t154 38.5q90 0 153 -38.5t94.5 -105.5t31.5 -150q0 -84 -31.5 -150.5t-94.5 -105.5t-153 -39q-91 0 -154 39zM450.5 137q41.5 53 41.5 141q0 87 -41.5 140t-118.5 53q-78 0 -120 -53t-42 -140
q0 -88 42 -141t120 -53q77 0 118.5 53zM176 772h309v-78h-309v78z" />
    <glyph glyph-name="Ohungarumlaut" unicode="&#x150;" horiz-adv-x="839" 
d="M51 0zM218 34.5q-83 51.5 -125 141t-42 202.5q0 111 42 200t125 141.5t202 52.5q118 0 201 -52.5t125 -142t42 -199.5q0 -113 -42 -202.5t-125 -141t-201 -51.5q-119 0 -202 51.5zM553.5 123.5q55.5 38.5 84.5 105.5t29 152q0 81 -29 147t-85 104t-133 38
q-80 0 -135.5 -38.5t-84 -104.5t-28.5 -149q0 -84 28.5 -150.5t84 -104.5t135.5 -38q78 0 133.5 38.5zM566 989h123l-121 -153h-105zM369 989h123l-121 -153h-105z" />
    <glyph glyph-name="ohungarumlaut" unicode="&#x151;" horiz-adv-x="662" 
d="M51 0zM178 22q-63 39 -95 105.5t-32 150.5q0 83 32 150t95 105.5t154 38.5q90 0 153 -38.5t94.5 -105.5t31.5 -150q0 -84 -31.5 -150.5t-94.5 -105.5t-153 -39q-91 0 -154 39zM450.5 137q41.5 53 41.5 141q0 87 -41.5 140t-118.5 53q-78 0 -120 -53t-42 -140
q0 -88 42 -141t120 -53q77 0 118.5 53zM478 809h123l-121 -153h-105zM280 809h123l-121 -153h-105z" />
    <glyph glyph-name="OE" unicode="&#x152;" horiz-adv-x="1115" 
d="M1055 99v-99h-613q-193 0 -290.5 96.5t-97.5 283.5q0 188 97.5 283t290.5 95h608v-99h-352v-228h302v-99h-302v-233h357zM580 102v554h-138q-136 0 -202 -66.5t-66 -212.5q0 -142 67 -208.5t201 -66.5h138z" />
    <glyph glyph-name="oe" unicode="&#x153;" horiz-adv-x="1032" 
d="M657 130q42 -48 131 -48q39 0 77 10.5t83 31.5l32 -92q-47 -26 -96 -37.5t-108 -11.5q-78 0 -135 30.5t-90 86.5q-34 -55 -90.5 -86t-133.5 -31q-89 0 -151 39t-93.5 105.5t-31.5 150.5q0 83 31.5 150t93.5 105.5t151 38.5q76 0 132.5 -30.5t90.5 -84.5q32 56 86 85.5
t119 29.5q111 0 174 -68.5t63 -199.5v-45h-381q4 -81 46 -129zM616 351h256q-5 63 -35 92.5t-87 29.5q-110 0 -134 -122zM450.5 137q41.5 53 41.5 141t-41.5 140.5t-118.5 52.5q-78 0 -120 -52.5t-42 -140.5t42 -141t120 -53q77 0 118.5 53z" />
    <glyph glyph-name="Racute" unicode="&#x154;" horiz-adv-x="715" 
d="M100 0zM349 309h-131v-309h-118v758h276q258 0 258 -225q0 -87 -40.5 -141t-121.5 -73l197 -319h-133zM218 411h158q70 0 104 31t34 94t-34 91.5t-104 28.5h-158v-245zM378 989h133l-121 -153h-115z" />
    <glyph glyph-name="racute" unicode="&#x155;" horiz-adv-x="416" 
d="M85 0zM386 568v-104h-23q-82 0 -164 -65v-399h-114v556h114v-59q79 71 164 71h23zM276 809h133l-121 -153h-115z" />
    <glyph glyph-name="Rcommaaccent" unicode="&#x156;" horiz-adv-x="715" 
d="M100 0zM349 309h-131v-309h-118v758h276q258 0 258 -225q0 -87 -40.5 -141t-121.5 -73l197 -319h-133zM218 411h158q70 0 104 31t34 94t-34 91.5t-104 28.5h-158v-245zM292 -80h120l-43 -166h-109z" />
    <glyph glyph-name="rcommaaccent" unicode="&#x157;" horiz-adv-x="416" 
d="M51 0zM386 568v-104h-23q-82 0 -164 -65v-399h-114v556h114v-59q79 71 164 71h23zM83 -80h120l-43 -166h-109z" />
    <glyph glyph-name="Rcaron" unicode="&#x158;" horiz-adv-x="715" 
d="M100 0zM349 309h-131v-309h-118v758h276q258 0 258 -225q0 -87 -40.5 -141t-121.5 -73l197 -319h-133zM218 411h158q70 0 104 31t34 94t-34 91.5t-104 28.5h-158v-245zM512 989l-106 -153h-145l-106 153h118l61 -105l60 105h118z" />
    <glyph glyph-name="rcaron" unicode="&#x159;" horiz-adv-x="416" 
d="M55 0zM386 568v-104h-23q-82 0 -164 -65v-399h-114v556h114v-59q79 71 164 71h23zM412 809l-106 -153h-145l-106 153h118l61 -105l60 105h118z" />
    <glyph glyph-name="Sacute" unicode="&#x15a;" horiz-adv-x="650" 
d="M61 0zM61 38v109q118 -62 264 -62q77 0 113 31t36 82q0 49 -33 74t-100 43l-68 19q-58 17 -100 39t-70.5 64.5t-28.5 110.5q0 110 65 167t183 57q71 0 124.5 -12.5t108.5 -39.5v-106q-106 56 -233 56q-130 0 -130 -114q1 -50 30.5 -73.5t96.5 -41.5l69 -19
q62 -17 105.5 -40t71 -66.5t27.5 -113.5q-1 -102 -72 -160.5t-195 -58.5q-148 0 -264 55zM373 989h133l-121 -153h-115z" />
    <glyph glyph-name="sacute" unicode="&#x15b;" horiz-adv-x="527" 
d="M51 0zM153.5 -6.5q-48.5 10.5 -102.5 35.5v108q96 -55 214 -55q50 0 72.5 19.5t22.5 52.5q0 30 -17 45t-55 25l-73 17q-74 17 -113.5 55t-39.5 110q0 80 51.5 123t153.5 43q90 0 183 -36v-103q-84 40 -179 40q-50 0 -71.5 -17.5t-21.5 -44.5q0 -29 17 -43t51 -23l74 -17
q79 -18 117.5 -54.5t38.5 -115.5q0 -85 -57.5 -130t-153.5 -45q-63 0 -111.5 10.5zM309 809h133l-121 -153h-115z" />
    <glyph glyph-name="Scedilla" unicode="&#x15e;" horiz-adv-x="650" 
d="M529.5 50q-61.5 -58 -170.5 -66l-14 -42h6q52 0 80.5 -27t28.5 -71q0 -49 -34 -78t-98 -29q-29 0 -53 4t-49 16v71q46 -21 92 -21q29 0 42.5 10t13.5 25q0 32 -53 32q-40 0 -79 -14l36 124q-120 7 -217 54v109q118 -62 264 -62q77 0 113 31t36 82q0 49 -33 74t-100 43
l-68 19q-58 17 -100 39t-70.5 64.5t-28.5 110.5q0 110 65 167t183 57q71 0 124.5 -12.5t108.5 -39.5v-106q-106 56 -233 56q-130 0 -130 -114q1 -50 30.5 -73.5t96.5 -41.5l69 -19q62 -17 105.5 -40t71 -66.5t27.5 -113.5q-1 -94 -62.5 -152z" />
    <glyph glyph-name="scedilla" unicode="&#x15f;" horiz-adv-x="527" 
d="M428.5 37q-47.5 -44 -128.5 -52l-14 -43h7q52 0 80 -27t28 -71q0 -49 -33.5 -78t-98.5 -29q-29 0 -53 4t-49 16v71q46 -21 92 -21q29 0 42.5 10t13.5 25q0 32 -52 32q-40 0 -80 -14l36 124q-45 3 -85 13.5t-83 31.5v108q96 -55 214 -55q50 0 72.5 19.5t22.5 52.5
q0 30 -17 45t-55 25l-73 17q-74 17 -113.5 55t-39.5 110q0 80 51.5 123t153.5 43q90 0 183 -36v-103q-84 40 -179 40q-50 0 -71.5 -17.5t-21.5 -44.5q0 -29 17 -43t51 -23l74 -17q79 -18 117.5 -54.5t38.5 -115.5q0 -77 -47.5 -121z" />
    <glyph glyph-name="Scaron" unicode="&#x160;" horiz-adv-x="650" 
d="M61 0zM61 38v109q118 -62 264 -62q77 0 113 31t36 82q0 49 -33 74t-100 43l-68 19q-58 17 -100 39t-70.5 64.5t-28.5 110.5q0 110 65 167t183 57q71 0 124.5 -12.5t108.5 -39.5v-106q-106 56 -233 56q-130 0 -130 -114q1 -50 30.5 -73.5t96.5 -41.5l69 -19
q62 -17 105.5 -40t71 -66.5t27.5 -113.5q-1 -102 -72 -160.5t-195 -58.5q-148 0 -264 55zM507 989l-106 -153h-145l-106 153h118l61 -105l60 105h118z" />
    <glyph glyph-name="scaron" unicode="&#x161;" horiz-adv-x="527" 
d="M51 0zM153.5 -6.5q-48.5 10.5 -102.5 35.5v108q96 -55 214 -55q50 0 72.5 19.5t22.5 52.5q0 30 -17 45t-55 25l-73 17q-74 17 -113.5 55t-39.5 110q0 80 51.5 123t153.5 43q90 0 183 -36v-103q-84 40 -179 40q-50 0 -71.5 -17.5t-21.5 -44.5q0 -29 17 -43t51 -23l74 -17
q79 -18 117.5 -54.5t38.5 -115.5q0 -85 -57.5 -130t-153.5 -45q-63 0 -111.5 10.5zM445 809l-106 -153h-145l-106 153h118l61 -105l60 105h118z" />
    <glyph glyph-name="uni0162" unicode="&#x162;" horiz-adv-x="644" 
d="M362 0l-19 -58h6q52 0 80.5 -27t28.5 -71q0 -49 -34 -78t-98 -29q-29 0 -53 4t-49 16v71q46 -21 92 -21q29 0 42.5 10t13.5 25q0 32 -53 32q-40 0 -79 -14l41 140h-18v654h-223v104h564v-104h-223v-654h-19z" />
    <glyph glyph-name="uni0163" unicode="&#x163;" horiz-adv-x="390" 
d="M334 -85q28 -27 28 -71q0 -49 -33.5 -78t-98.5 -29q-29 0 -53 4t-49 16v71q46 -21 92 -21q29 0 42.5 10t13.5 25q0 32 -52 32q-40 0 -80 -14l40 136q-40 13 -57.5 44.5t-17.5 85.5v316h-73v104h73v190h114v-190h128v-104h-128v-284q0 -38 12 -52.5t45 -14.5q31 0 63 8
v-101q-48 -10 -81 -11l-15 -45h7q52 0 80 -27z" />
    <glyph glyph-name="Tcaron" unicode="&#x164;" horiz-adv-x="644" 
d="M40 0zM604 654h-223v-654h-118v654h-223v104h564v-104zM500 989l-106 -153h-145l-106 153h118l61 -105l60 105h118z" />
    <glyph glyph-name="tcaron" unicode="&#x165;" horiz-adv-x="390" 
d="M36 0zM223 442v-284q0 -38 12 -52.5t45 -14.5q31 0 63 8v-101q-47 -11 -87 -11q-80 0 -113.5 33t-33.5 106v316h-73v104h73v190h114v-190h128v-104h-128zM317 808h114l-66 -202h-98z" />
    <glyph glyph-name="Tbar" unicode="&#x166;" horiz-adv-x="614" 
d="M376 654v-158h158v-102h-158v-394h-118v394h-158v102h158v158h-223v104h564v-104h-223z" />
    <glyph glyph-name="tbar" unicode="&#x167;" horiz-adv-x="390" 
d="M223 228v-70q0 -38 12 -52.5t45 -14.5q31 0 63 8v-101q-47 -11 -87 -11q-80 0 -113.5 33t-33.5 106v102h-73v98h73v116h-73v104h73v190h114v-190h128v-104h-128v-116h128v-98h-128z" />
    <glyph glyph-name="Umacron" unicode="&#x16a;" horiz-adv-x="793" 
d="M98 0zM172.5 59q-74.5 76 -74.5 214v485h118v-485q0 -93 45.5 -140.5t135.5 -47.5t135.5 47.5t45.5 140.5v485h118v-485q0 -139 -74.5 -214.5t-224.5 -75.5t-224.5 76zM242 952h309v-78h-309v78z" />
    <glyph glyph-name="umacron" unicode="&#x16b;" horiz-adv-x="652" 
d="M80 0zM567 556v-556h-114v55q-79 -67 -166 -67q-105 0 -156 55t-51 178v335h114v-335q0 -68 25.5 -98.5t87.5 -30.5q73 0 146 63v401h114zM168 772h309v-78h-309v78z" />
    <glyph glyph-name="Uring" unicode="&#x16e;" horiz-adv-x="793" 
d="M98 0zM172.5 59q-74.5 76 -74.5 214v485h118v-485q0 -93 45.5 -140.5t135.5 -47.5t135.5 47.5t45.5 140.5v485h118v-485q0 -139 -74.5 -214.5t-224.5 -75.5t-224.5 76zM317.5 846q-28.5 26 -28.5 66q0 41 28 66t80 25t79.5 -25t27.5 -66t-28 -66.5t-79 -25.5t-79.5 26z
M427 883.5q11 10.5 11 28.5t-11 28.5t-30 10.5t-30.5 -10.5t-11.5 -28.5t11.5 -28.5t30.5 -10.5t30 10.5z" />
    <glyph glyph-name="uring" unicode="&#x16f;" horiz-adv-x="652" 
d="M80 0zM567 556v-556h-114v55q-79 -67 -166 -67q-105 0 -156 55t-51 178v335h114v-335q0 -68 25.5 -98.5t87.5 -30.5q73 0 146 63v401h114zM243.5 666q-28.5 26 -28.5 66q0 41 28 66t80 25t79.5 -25t27.5 -66t-28 -66.5t-79 -25.5t-79.5 26zM353 703.5q11 10.5 11 28.5
t-11 28.5t-30 10.5t-30.5 -10.5t-11.5 -28.5t11.5 -28.5t30.5 -10.5t30 10.5z" />
    <glyph glyph-name="Uhungarumlaut" unicode="&#x170;" horiz-adv-x="793" 
d="M98 0zM172.5 59q-74.5 76 -74.5 214v485h118v-485q0 -93 45.5 -140.5t135.5 -47.5t135.5 47.5t45.5 140.5v485h118v-485q0 -139 -74.5 -214.5t-224.5 -75.5t-224.5 76zM543 989h123l-121 -153h-105zM346 989h123l-121 -153h-105z" />
    <glyph glyph-name="uhungarumlaut" unicode="&#x171;" horiz-adv-x="652" 
d="M80 0zM567 556v-556h-114v55q-79 -67 -166 -67q-105 0 -156 55t-51 178v335h114v-335q0 -68 25.5 -98.5t87.5 -30.5q73 0 146 63v401h114zM471 809h123l-121 -153h-105zM273 809h123l-121 -153h-105z" />
    <glyph glyph-name="Uogonek" unicode="&#x172;" horiz-adv-x="793" 
d="M696 758v-485q0 -119 -54.5 -192t-164.5 -92q-85 -68 -85 -122q0 -18 11.5 -28t33.5 -10q28 0 53 12v-72q-35 -12 -67 -12q-61 0 -91.5 25t-30.5 68q0 69 71 134q-137 6 -205.5 81t-68.5 208v485h118v-485q0 -93 45.5 -140.5t135.5 -47.5t135.5 47.5t45.5 140.5v485h118z
" />
    <glyph glyph-name="uogonek" unicode="&#x173;" horiz-adv-x="652" 
d="M567 556v-556q-46 -37 -71.5 -69t-25.5 -64q0 -18 11.5 -28t33.5 -10q28 0 52 12v-72q-33 -12 -67 -12q-60 0 -90.5 25t-30.5 68q0 78 94 150h-20v55q-79 -67 -166 -67q-105 0 -156 55t-51 178v335h114v-335q0 -68 25.5 -98.5t87.5 -30.5q73 0 146 63v401h114z" />
    <glyph glyph-name="Wcircumflex" unicode="&#x174;" horiz-adv-x="1123" 
d="M43 0zM1081 758l-210 -767h-138l-171 598l-170 -598h-138l-211 767h117l163 -619l171 619h135l172 -619l162 619h118zM622 836l-60 105l-61 -105h-118l106 153h145l106 -153h-118z" />
    <glyph glyph-name="wcircumflex" unicode="&#x175;" horiz-adv-x="887" 
d="M25 0zM862 556l-163 -565h-128l-127 402l-127 -402h-128l-164 565h118l111 -421l123 421h133l124 -421l110 421h118zM503 656l-60 105l-61 -105h-118l106 153h145l106 -153h-118z" />
    <glyph glyph-name="Ycircumflex" unicode="&#x176;" horiz-adv-x="718" 
d="M28 0zM417 293v-293h-116v293l-273 465h120l211 -365l212 365h120zM419 836l-60 105l-61 -105h-118l106 153h145l106 -153h-118z" />
    <glyph glyph-name="ycircumflex" unicode="&#x177;" horiz-adv-x="565" 
d="M20 0zM545 556l-240 -645q-24 -66 -47.5 -100t-55 -48t-82.5 -14q-37 0 -69 9v101q27 -6 55 -6q36 0 56.5 19t41.5 73l21 57l-205 554h118l143 -404l151 404h113zM342 656l-60 105l-61 -105h-118l106 153h145l106 -153h-118z" />
    <glyph glyph-name="Ydieresis" unicode="&#x178;" horiz-adv-x="718" 
d="M28 0zM417 293v-293h-116v293l-273 465h120l211 -365l212 365h120zM412 978h104v-131h-104v131zM204 978h104v-131h-104v131z" />
    <glyph glyph-name="Zacute" unicode="&#x179;" horiz-adv-x="723" 
d="M80 0zM653 104v-104h-573v102l395 552h-382v104h527v-102l-394 -552h427zM405 989h133l-121 -153h-115z" />
    <glyph glyph-name="zacute" unicode="&#x17a;" horiz-adv-x="546" 
d="M66 0zM496 102v-102h-430v102l282 352h-264v102h390v-102l-281 -352h303zM313 809h133l-121 -153h-115z" />
    <glyph glyph-name="Zdotaccent" unicode="&#x17b;" horiz-adv-x="723" 
d="M80 0zM653 104v-104h-573v102l395 552h-382v104h527v-102l-394 -552h427zM305 978h114v-131h-114v131z" />
    <glyph glyph-name="zdotaccent" unicode="&#x17c;" horiz-adv-x="546" 
d="M66 0zM496 102v-102h-430v102l282 352h-264v102h390v-102l-281 -352h303zM215 798h114v-131h-114v131z" />
    <glyph glyph-name="Zcaron" unicode="&#x17d;" horiz-adv-x="723" 
d="M80 0zM653 104v-104h-573v102l395 552h-382v104h527v-102l-394 -552h427zM539 989l-106 -153h-145l-106 153h118l61 -105l60 105h118z" />
    <glyph glyph-name="zcaron" unicode="&#x17e;" horiz-adv-x="546" 
d="M66 0zM496 102v-102h-430v102l282 352h-264v102h390v-102l-281 -352h303zM448 809l-106 -153h-145l-106 153h118l61 -105l60 105h118z" />
    <glyph glyph-name="florin" unicode="&#x192;" horiz-adv-x="550" 
d="M357 741.5q-13 -13.5 -17 -48.5l-15 -147h115l-20 -104h-106l-69 -676h-114l69 676h-92v104h103l16 153q6 62 24 96t54 49t99 15q26 0 50 -4v-104q-23 4 -52 4q-32 0 -45 -13.5z" />
    <glyph glyph-name="Scommaaccent" unicode="&#x218;" horiz-adv-x="650" 
d="M61 0zM61 38v109q118 -62 264 -62q77 0 113 31t36 82q0 49 -33 74t-100 43l-68 19q-58 17 -100 39t-70.5 64.5t-28.5 110.5q0 110 65 167t183 57q71 0 124.5 -12.5t108.5 -39.5v-106q-106 56 -233 56q-130 0 -130 -114q1 -50 30.5 -73.5t96.5 -41.5l69 -19
q62 -17 105.5 -40t71 -66.5t27.5 -113.5q-1 -102 -72 -160.5t-195 -58.5q-148 0 -264 55zM262 -80h120l-43 -166h-109z" />
    <glyph glyph-name="scommaaccent" unicode="&#x219;" horiz-adv-x="527" 
d="M51 0zM153.5 -6.5q-48.5 10.5 -102.5 35.5v108q96 -55 214 -55q50 0 72.5 19.5t22.5 52.5q0 30 -17 45t-55 25l-73 17q-74 17 -113.5 55t-39.5 110q0 80 51.5 123t153.5 43q90 0 183 -36v-103q-84 40 -179 40q-50 0 -71.5 -17.5t-21.5 -44.5q0 -29 17 -43t51 -23l74 -17
q79 -18 117.5 -54.5t38.5 -115.5q0 -85 -57.5 -130t-153.5 -45q-63 0 -111.5 10.5zM204 -80h120l-43 -166h-109z" />
    <glyph glyph-name="uni021A" unicode="&#x21a;" horiz-adv-x="644" 
d="M40 0zM604 654h-223v-654h-118v654h-223v104h564v-104zM260 -80h120l-43 -166h-109z" />
    <glyph glyph-name="uni021B" unicode="&#x21b;" horiz-adv-x="390" 
d="M36 0zM223 442v-284q0 -38 12 -52.5t45 -14.5q31 0 63 8v-101q-47 -11 -87 -11q-80 0 -113.5 33t-33.5 106v316h-73v104h73v190h114v-190h128v-104h-128zM165 -80h120l-43 -166h-109z" />
    <glyph glyph-name="uni0237" unicode="&#x237;" horiz-adv-x="284" 
d="M-25 -242v101q23 -6 53 -6q33 0 45 18t12 69v618h114v-653q0 -84 -34 -120t-115 -36q-26 0 -75 9z" />
    <glyph glyph-name="circumflex" unicode="&#x2c6;" horiz-adv-x="649" 
d="M385 656l-60 105l-61 -105h-118l106 153h145l106 -153h-118z" />
    <glyph glyph-name="caron" unicode="&#x2c7;" horiz-adv-x="649" 
d="M503 809l-106 -153h-145l-106 153h118l61 -105l60 105h118z" />
    <glyph glyph-name="breve" unicode="&#x2d8;" horiz-adv-x="650" 
d="M209 688q-43 35 -43 105v14h90v-12q0 -35 17 -52t53 -17q37 0 53.5 17t16.5 52v12h90v-14q1 -70 -41.5 -105t-118.5 -35q-74 0 -117 35z" />
    <glyph glyph-name="dotaccent" unicode="&#x2d9;" horiz-adv-x="650" 
d="M269 798h114v-131h-114v131z" />
    <glyph glyph-name="ring" unicode="&#x2da;" horiz-adv-x="649" 
d="M245.5 666q-28.5 26 -28.5 66q0 41 28 66t80 25t79.5 -25t27.5 -66t-28 -66.5t-79 -25.5t-79.5 26zM355 703.5q11 10.5 11 28.5t-11 28.5t-30 10.5t-30.5 -10.5t-11.5 -28.5t11.5 -28.5t30.5 -10.5t30 10.5z" />
    <glyph glyph-name="ogonek" unicode="&#x2db;" horiz-adv-x="650" 
d="M239.5 -218q-30.5 25 -30.5 68q0 78 92 150h97q-47 -36 -72.5 -68.5t-25.5 -64.5q0 -38 46 -38q28 0 52 12v-72q-33 -12 -67 -12q-61 0 -91.5 25z" />
    <glyph glyph-name="tilde" unicode="&#x2dc;" horiz-adv-x="649" 
d="M250 790q28 0 58 -13l37 -16q26 -10 35 -10q25 0 25 39h85q-1 -121 -90 -121q-28 0 -58 13l-37 16q-24 10 -35 10q-26 0 -26 -39h-85q2 121 91 121z" />
    <glyph glyph-name="hungarumlaut" unicode="&#x2dd;" horiz-adv-x="649" 
d="M442 809h123l-121 -153h-105zM244 809h123l-121 -153h-105z" />
    <glyph glyph-name="uni0326" unicode="&#x326;" horiz-adv-x="650" 
d="M-380 -80h120l-43 -166h-109z" />
    <glyph glyph-name="uni0901" unicode="&#x901;" horiz-adv-x="0" 
d="M0 710zM-342 879v15h94v-15q0 -43 27 -64t83 -21t83 21t27 64v15h94v-15q0 -169 -204 -169t-204 169zM-212 945l74 74l74 -74l-74 -73z" />
    <glyph glyph-name="uni0902" unicode="&#x902;" horiz-adv-x="0" 
d="M-212 774l74 74l74 -74l-74 -73z" />
    <glyph glyph-name="uni0903" unicode="&#x903;" horiz-adv-x="302" 
d="M77 433l74 74l74 -74l-74 -73zM77 98l74 74l74 -74l-74 -73z" />
    <glyph glyph-name="uni0904" unicode="&#x904;" horiz-adv-x="732" 
d="M742 654v-84h-105v-570h-104v222h-176v-5q0 -94 -74.5 -135.5t-189.5 -41.5h-58v84h58q69 0 114.5 22t45.5 81q0 43 -28.5 63.5t-92.5 20.5h-51v84h52q61 0 90.5 25.5t29.5 67.5q0 45 -32 63.5t-98 18.5h-57v84h57q120 0 177 -35.5t57 -118.5q0 -50 -22.5 -85.5
t-68.5 -58.5q43 -14 67 -50h200v264h-116v84h116v40q0 37 -8.5 58t-31.5 31t-67 10h-167q-85 0 -132 20t-65.5 60t-18.5 108v25h104v-25q0 -40 8 -61.5t31.5 -32t72.5 -10.5h167q90 0 135.5 -19t60.5 -57t15 -107v-40h105z" />
    <glyph glyph-name="uni0905" unicode="&#x905;" horiz-adv-x="732" 
d="M742 654v-84h-105v-570h-104v222h-176v-5q0 -94 -74.5 -135.5t-189.5 -41.5h-58v84h58q69 0 114.5 22t45.5 81q0 43 -28.5 63.5t-92.5 20.5h-51v84h52q61 0 90.5 25.5t29.5 67.5q0 45 -32 63.5t-98 18.5h-57v84h57q120 0 177 -35.5t57 -118.5q0 -50 -22.5 -85.5
t-68.5 -58.5q43 -14 67 -50h200v264h-116v84h325z" />
    <glyph glyph-name="uni0906" unicode="&#x906;" horiz-adv-x="1026" 
d="M1036 570h-105v-570h-104v570h-190v-570h-104v222h-176v-5q0 -94 -74.5 -135.5t-189.5 -41.5h-58v84h58q69 0 114.5 22t45.5 81q0 43 -28.5 63.5t-92.5 20.5h-51v84h52q61 0 90.5 25.5t29.5 67.5q0 45 -32 63.5t-98 18.5h-57v84h57q120 0 177 -35.5t57 -118.5
q0 -50 -22.5 -85.5t-68.5 -58.5q43 -14 67 -50h200v264h-116v84h619v-84z" />
    <glyph glyph-name="uni0907" unicode="&#x907;" horiz-adv-x="527" 
d="M178 393.5q-16 -10.5 -16 -37.5q0 -16 6.5 -30t16.5 -21h112q189 0 189 -148q0 -79 -48 -119t-138 -40h-11q-70 0 -132 25v-88h-94v239h94v-66q59 -26 125 -26h13q42 0 64.5 17t22.5 51q0 38 -21 54.5t-64 16.5h-167q-26 19 -49 58.5t-23 83.5q0 68 41 96.5t128 28.5h85
v82h-322v84h547v-84h-121v-166h-189q-33 0 -49 -10.5z" />
    <glyph glyph-name="uni0908" unicode="&#x908;" horiz-adv-x="527" 
d="M178 393.5q-16 -10.5 -16 -37.5q0 -16 6.5 -30t16.5 -21h112q189 0 189 -148q0 -79 -48 -119t-138 -40h-11q-70 0 -132 25v-88h-94v239h94v-66q59 -26 125 -26h13q42 0 64.5 17t22.5 51q0 38 -21 54.5t-64 16.5h-167q-26 19 -49 58.5t-23 83.5q0 68 41 96.5t128 28.5h85
v82h-322v84h326q-40 85 -40 160q0 77 46.5 112.5t113.5 35.5q46 0 78 -13v-87q-36 16 -65 16q-31 0 -50 -18.5t-19 -59.5q0 -35 10 -68.5t30 -77.5h117v-84h-121v-166h-189q-33 0 -49 -10.5z" />
    <glyph glyph-name="uni0909" unicode="&#x909;" horiz-adv-x="576" 
d="M586 570h-118q33 -33 33 -95q0 -48 -21.5 -81t-69.5 -51q47 -16 69 -58t22 -99q0 -186 -229 -186t-229 191v50h104v-50q0 -60 34 -83.5t91 -23.5q58 0 91.5 23.5t33.5 83.5q0 56 -27.5 83t-88.5 27h-71v84h72q58 0 86.5 26.5t28.5 68.5q0 34 -15.5 53t-54.5 37h-337v84
h596v-84z" />
    <glyph glyph-name="uni090A" unicode="&#x90a;" horiz-adv-x="824" 
d="M829 570h-361q33 -33 33 -95q0 -48 -21.5 -81t-69.5 -51q40 -15 62 -48q35 22 67 32.5t72 10.5q91 0 134.5 -37.5t43.5 -131.5q0 -92 -44 -130.5t-136 -38.5h-12q-14 0 -29.5 1.5t-25.5 3.5v84q25 -5 49 -5h12q40 0 61 19t21 66q0 45 -20 65t-66 20q-32 0 -55 -7t-46 -21
q3 -19 3 -40q0 -186 -229 -186t-229 191v50h104v-50q0 -60 34 -83.5t91 -23.5q58 0 91.5 23.5t33.5 83.5q0 56 -27.5 83t-88.5 27h-71v84h72q58 0 86.5 26.5t28.5 68.5q0 34 -15.5 53t-54.5 37h-337v84h839v-84z" />
    <glyph glyph-name="uni090B" unicode="&#x90b;" horiz-adv-x="841" 
d="M465 570v-209h120v116h104v-128q57 -47 86 -89.5t29 -92.5q0 -82 -59 -124.5t-153 -42.5h-30v84h30q48 0 78 21t30 63q0 32 -19 58t-60 51h-156v-277h-104v202l-249 -211l-61 69l305 256q-43 41 -79 55.5t-81 14.5q-46 0 -141 -26v91q94 25 146 25q46 0 83 -14t77 -48
v156h-371v84h861v-84h-386z" />
    <glyph glyph-name="uni090C" unicode="&#x90c;" horiz-adv-x="759" 
d="M594 570v-145q61 -12 93.5 -51t32.5 -94q0 -56 -25.5 -93.5t-72.5 -79.5q-30 -28 -43.5 -45t-13.5 -36q-2 -54 71 -54q31 0 65 11t56 26v-90q-48 -31 -130 -31q-80 0 -123.5 35.5t-43.5 93.5q0 41 21 71t62 68q36 33 54.5 58.5t18.5 58.5q0 35 -20 54t-58 19
q-88 0 -90 -119v-29h-104v29q-2 119 -87 119q-89 0 -91 -119q2 -64 31.5 -103.5t107.5 -39.5h32v-84h-32q-129 0 -186 65.5t-57 161.5q0 92 47.5 147.5t137.5 55.5q53 0 90.5 -20t58.5 -56q31 54 94 70v146h-500v84h799v-84h-195z" />
    <glyph glyph-name="uni090D" unicode="&#x90d;" horiz-adv-x="594" 
d="M0 20zM604 570h-92v-171q0 -93 -43 -129.5t-136 -37.5h-32v84h32q27 1 42.5 7t24 23.5t8.5 52.5v171h-204v-285q0 -83 27 -122.5t68.5 -49t109.5 -9.5h93v-84h-93q-100 0 -165.5 19t-104.5 77t-39 169v285h-110v84h614v-84zM95 879v15h94v-15q0 -43 27 -64t83 -21t83 21
t27 64v15h94v-15q0 -169 -204 -169t-204 169z" />
    <glyph glyph-name="uni090E" unicode="&#x90e;" horiz-adv-x="594" 
d="M604 570h-92v-171q0 -93 -43 -129.5t-136 -37.5h-32v84h32q27 1 42.5 7t24 23.5t8.5 52.5v171h-204v-285q0 -83 27 -122.5t68.5 -49t109.5 -9.5h93v-84h-93q-100 0 -165.5 19t-104.5 77t-39 169v285h-110v84h423v40q0 37 -8.5 58t-31.5 31t-67 10h-167q-85 0 -132 20
t-65.5 60t-18.5 108v25h104v-25q0 -40 8 -61.5t31.5 -32t72.5 -10.5h167q90 0 135.5 -19t60.5 -57t15 -107v-40h87v-84z" />
    <glyph glyph-name="uni090F" unicode="&#x90f;" horiz-adv-x="594" 
d="M604 570h-92v-171q0 -93 -43 -129.5t-136 -37.5h-32v84h32q27 1 42.5 7t24 23.5t8.5 52.5v171h-204v-285q0 -83 27 -122.5t68.5 -49t109.5 -9.5h93v-84h-93q-100 0 -165.5 19t-104.5 77t-39 169v285h-110v84h614v-84z" />
    <glyph glyph-name="uni0910" unicode="&#x910;" horiz-adv-x="594" 
d="M604 570h-92v-171q0 -93 -43 -129.5t-136 -37.5h-32v84h32q27 1 42.5 7t24 23.5t8.5 52.5v171h-204v-285q0 -83 27 -122.5t68.5 -49t109.5 -9.5h93v-84h-93q-100 0 -165.5 19t-104.5 77t-39 169v285h-110v84h422l-28 124q-11 48 -32.5 64.5t-66.5 16.5h-85v84h85
q63 0 100 -12t62 -47t41 -106l28 -124h88v-84z" />
    <glyph glyph-name="uni0911" unicode="&#x911;" horiz-adv-x="1026" 
d="M35 0zM1036 570h-105v-570h-104v570h-190v-570h-104v222h-176v-5q0 -94 -74.5 -135.5t-189.5 -41.5h-58v84h58q69 0 114.5 22t45.5 81q0 43 -28.5 63.5t-92.5 20.5h-51v84h52q61 0 90.5 25.5t29.5 67.5q0 45 -32 63.5t-98 18.5h-57v84h57q120 0 177 -35.5t57 -118.5
q0 -50 -22.5 -85.5t-68.5 -58.5q43 -14 67 -50h200v264h-116v84h619v-84zM674 899v15h94v-15q0 -43 27 -64t83 -21t83 21t27 64v15h94v-15q0 -169 -204 -169t-204 169z" />
    <glyph glyph-name="uni0912" unicode="&#x912;" horiz-adv-x="1026" 
d="M1036 570h-105v-570h-104v570h-190v-570h-104v222h-176v-5q0 -94 -74.5 -135.5t-189.5 -41.5h-58v84h58q69 0 114.5 22t45.5 81q0 43 -28.5 63.5t-92.5 20.5h-51v84h52q61 0 90.5 25.5t29.5 67.5q0 45 -32 63.5t-98 18.5h-57v84h57q120 0 177 -35.5t57 -118.5
q0 -50 -22.5 -85.5t-68.5 -58.5q43 -14 67 -50h200v264h-116v84h410v40q0 37 -8.5 58t-31.5 31t-67 10h-167q-85 0 -132 20t-65.5 60t-18.5 108v25h104v-25q0 -40 8 -61.5t31.5 -32t72.5 -10.5h167q90 0 135.5 -19t60.5 -57t15 -107v-40h105v-84z" />
    <glyph glyph-name="uni0913" unicode="&#x913;" horiz-adv-x="1026" 
d="M1036 570h-105v-570h-104v570h-190v-570h-104v222h-176v-5q0 -94 -74.5 -135.5t-189.5 -41.5h-58v84h58q69 0 114.5 22t45.5 81q0 43 -28.5 63.5t-92.5 20.5h-51v84h52q61 0 90.5 25.5t29.5 67.5q0 45 -32 63.5t-98 18.5h-57v84h57q120 0 177 -35.5t57 -118.5
q0 -50 -22.5 -85.5t-68.5 -58.5q43 -14 67 -50h200v264h-116v84h409l-28 124q-11 48 -32.5 64.5t-66.5 16.5h-85v84h85q63 0 100 -12t62 -47t41 -106l28 -124h106v-84z" />
    <glyph glyph-name="uni0914" unicode="&#x914;" horiz-adv-x="1026" 
d="M1036 570h-105v-570h-104v570h-190v-570h-104v222h-176v-5q0 -94 -74.5 -135.5t-189.5 -41.5h-58v84h58q69 0 114.5 22t45.5 81q0 43 -28.5 63.5t-92.5 20.5h-51v84h52q61 0 90.5 25.5t29.5 67.5q0 45 -32 63.5t-98 18.5h-57v84h57q120 0 177 -35.5t57 -118.5
q0 -50 -22.5 -85.5t-68.5 -58.5q43 -14 67 -50h200v264h-116v84h403l-52 65q-31 38 -65 52t-102 14h-95v84h95q59 0 95 -8t62 -26t54 -52l-20 87q-9 41 -34 55.5t-77 14.5h-85v84h85q62 0 99.5 -11.5t61.5 -44.5t39 -98l49 -216h106v-84z" />
    <glyph glyph-name="uni0915" unicode="&#x915;" horiz-adv-x="816" 
d="M460 570v-147q53 26 115 26h11q103 0 150.5 -37t47.5 -130q0 -91 -47 -129t-147 -38h-12q-15 0 -32 1.5t-28 3.5v84q28 -5 54 -5h12q48 0 72 18t24 65q0 50 -24.5 66.5t-80.5 16.5h-11q-30 0 -54.5 -5.5t-49.5 -19.5v-340h-104v141q-53 -26 -114 -26h-11
q-103 1 -150.5 37.5t-47.5 129.5q0 91 47 129t147 38h12q15 0 32 -1.5t28 -3.5v-83q-34 4 -54 4h-12q-48 0 -72 -18t-24 -65q0 -49 24.5 -65.5t80.5 -17.5h11q29 0 53.5 5.5t49.5 19.5v346h-366v84h836v-84h-366z" />
    <glyph glyph-name="uni0916" unicode="&#x916;" horiz-adv-x="893" 
d="M903 570h-105v-570h-104v172q-41 -17 -93 -17h-18q-164 0 -164 147q0 73 41.5 110t107.5 37h12q27 0 57 -5v-83q-21 4 -42 4h-12q-27 0 -43.5 -13.5t-16.5 -49.5q0 -38 18.5 -50.5t59.5 -12.5h15q42 0 78 16v315h-314v-175q0 -88 -47 -122.5t-147 -34.5h-6v-43
q0 -62 30 -86.5t102 -24.5h165v-84h-165q-114 0 -175 41.5t-61 153.5v234h104v-107h6q48 0 69 14t21 59v175h-286v84h913v-84z" />
    <glyph glyph-name="uni0917" unicode="&#x917;" horiz-adv-x="640" 
d="M650 570h-105v-570h-104v570h-155v-265q0 -130 -111 -130q-50 0 -84 25t-56 80l78 42q13 -32 24.5 -47.5t24.5 -15.5q12 0 16 10.5t4 35.5v265h-192v84h660v-84z" />
    <glyph glyph-name="uni0918" unicode="&#x918;" horiz-adv-x="611" 
d="M621 654v-84h-105v-570h-104v136q-52 -24 -117 -24h-18q-97 1 -143 36.5t-46 119.5q0 85 54 119q-46 14 -68 42.5t-22 76.5q0 38 13 64h-75v84h631zM412 224v346h-241q-15 -21 -15 -55q1 -48 31.5 -63.5t99.5 -15.5h34v-20h5v-64h-39q-48 0 -71.5 -16t-23.5 -62
q0 -47 22.5 -62t72.5 -16h18q61 0 107 28z" />
    <glyph glyph-name="uni0919" unicode="&#x919;" horiz-adv-x="608" 
d="M618 654v-84h-202v-126h-3v-52h-189q-33 0 -49 -10.5t-16 -37.5q0 -16 6.5 -29.5t15.5 -20.5h113q189 0 189 -148q0 -80 -48.5 -120t-138.5 -40h-11q-81 0 -142.5 19t-119.5 56l39 80q57 -37 107.5 -53.5t109.5 -16.5h13q87 0 87 68q0 37 -21.5 54t-63.5 17h-167
q-26 19 -49 58.5t-23 83.5q0 68 40.5 96t128.5 28h88v94h-322v84h628zM526 405l74 -74l-74 -73l-74 73z" />
    <glyph glyph-name="uni091A" unicode="&#x91a;" horiz-adv-x="626" 
d="M636 654v-84h-105v-570h-104v127q-47 -19 -103 -19h-24q-98 0 -150 38.5t-52 123.5q0 65 36 106h-100v84h321v-84h-110q-21 -15 -32 -37.5t-11 -59.5q0 -51 28 -69t86 -18h17q52 0 94 21v357h-437v84h646z" />
    <glyph glyph-name="uni091B" unicode="&#x91b;" horiz-adv-x="741" 
d="M626 570v-65q24 -13 34.5 -36t10.5 -59v-131q0 -266 -300 -266h-13q-123 0 -198 43t-75 141q0 111 76 145q-49 15 -71 46.5t-22 80.5q0 64 40 101h-118v84h761v-84h-125zM522 570h-269q-39 -14 -60 -36t-21 -60q1 -46 32 -65t99 -19h33v-84h-26q-62 0 -91.5 -23.5
t-29.5 -80.5q0 -58 48.5 -81.5t121.5 -23.5h12q196 0 196 182v127q0 17 -5.5 23.5t-22.5 6.5q-16 0 -22.5 -7t-6.5 -23v-101h-94v105q0 51 24.5 77t81.5 31v52z" />
    <glyph glyph-name="uni091C" unicode="&#x91c;" horiz-adv-x="688" 
d="M698 654v-84h-105v-570h-104v355h-89v-63q0 -99 -38.5 -144t-137.5 -45q-92 0 -131 46t-39 143v147h99v-154q0 -50 15.5 -74t55.5 -24q43 0 57.5 23t14.5 75v154h193v131h-499v84h708z" />
    <glyph glyph-name="uni091D" unicode="&#x91d;" horiz-adv-x="799" 
d="M809 570h-105v-570h-104v172h-129v-5q0 -79 -46.5 -119t-132.5 -40h-11q-69 0 -124 22v-85h-94v239h94v-69q52 -23 118 -23h13q38 0 58.5 17t20.5 51q0 37 -19 54t-58 17h-160q-26 19 -49 58.5t-23 83.5q0 68 41 96.5t128 28.5h70v72h-307v84h819v-84zM600 570h-199v-156
h-174q-33 0 -49 -10.5t-16 -37.5q0 -16 6.5 -30t16.5 -21h105q114 0 157 -59h153v314z" />
    <glyph glyph-name="uni091E" unicode="&#x91e;" horiz-adv-x="599" 
d="M609 654v-84h-105v-570h-104v246h-92q-10 -81 -63.5 -117t-153.5 -36h-53v84h53q58 0 86.5 24.5t28.5 84.5q0 65 -27 87t-88 22h-53v84h53q101 0 153.5 -34t62.5 -115h93v240h-410v84h619z" />
    <glyph glyph-name="uni091F" unicode="&#x91f;" horiz-adv-x="519" 
d="M197 378.5q-27 -11.5 -41.5 -43.5t-14.5 -91t13 -91t37.5 -43.5t65.5 -11.5h19q59 0 85.5 25.5t26.5 93.5v30h104v-30q0 -107 -52 -155t-164 -48h-19q-114 0 -167 52t-53 178t56 178t174 52h53v96h-330v84h539v-84h-105v-180h-157q-43 0 -70 -11.5z" />
    <glyph glyph-name="uni0920" unicode="&#x920;" horiz-adv-x="555" 
d="M420 443q42 -25 62 -74t20 -124q0 -126 -53 -178.5t-167 -52.5h-15q-113 0 -166.5 52.5t-53.5 178.5t56 178t174 52q43 0 61 14.5t18 51.5v29h-366v84h575v-84h-105v-29q0 -63 -40 -98zM347.5 109.5q24.5 11.5 37.5 43.5t13 92q0 85 -30 115.5t-91 30.5q-43 0 -70 -11.5
t-41.5 -43.5t-14.5 -91q0 -60 13.5 -92t39.5 -43.5t69 -11.5h9q41 0 65.5 11.5z" />
    <glyph glyph-name="uni0921" unicode="&#x921;" horiz-adv-x="521" 
d="M175 381.5q-16 -10.5 -16 -37.5q0 -16 6.5 -29.5t15.5 -20.5h113q189 0 189 -148q0 -80 -48.5 -120t-138.5 -40h-11q-81 0 -142.5 19t-119.5 56l39 80q57 -37 107.5 -53.5t109.5 -16.5h13q87 0 87 68q0 37 -21.5 54t-63.5 17h-167q-26 19 -49 58.5t-23 83.5q0 68 40.5 96
t128.5 28h88v94h-322v84h541v-84h-115v-126h-3v-52h-189q-33 0 -49 -10.5z" />
    <glyph glyph-name="uni0922" unicode="&#x922;" horiz-adv-x="519" 
d="M197 378.5q-27 -11.5 -41.5 -43.5t-14.5 -91t13 -91t37.5 -43.5t65.5 -11.5h19q58 0 85 17t27 58v31q0 19 -7.5 26.5t-25.5 7.5t-26 -8t-8 -26v-43h-94v52q0 54 31.5 79t103.5 25q68 0 99 -29t31 -85v-29q0 -81 -53 -120.5t-163 -39.5h-19q-113 0 -166.5 52.5
t-53.5 177.5q0 126 56 178t174 52h53v96h-330v84h539v-84h-105v-180h-157q-43 0 -70 -11.5z" />
    <glyph glyph-name="uni0923" unicode="&#x923;" horiz-adv-x="727" 
d="M737 654v-84h-105v-570h-104v570h-107v-192q0 -97 -41 -136t-127 -39t-127 39t-41 136v192h-95v84h747zM317 570h-128v-197q0 -48 15.5 -67t48.5 -19t48.5 19t15.5 67v197z" />
    <glyph glyph-name="uni0924" unicode="&#x924;" horiz-adv-x="577" 
d="M587 654v-84h-105v-570h-104v366h-138q-32 0 -50.5 -11.5t-28 -41.5t-10.5 -86q1 -83 23.5 -113t70.5 -30h17v-84h-17q-101 0 -149.5 52.5t-48.5 174.5t45.5 172.5t147.5 50.5h138v120h-388v84h597z" />
    <glyph glyph-name="uni0925" unicode="&#x925;" horiz-adv-x="634" 
d="M644 654v-84h-105v-570h-104v173q-63 -37 -143 -37q-88 0 -139.5 39t-84.5 138q64 25 93 42t44 46.5t15 83.5v38q0 35 -7.5 47.5t-29.5 12.5t-30 -13t-8 -47v-58h-94v58q0 69 31 104t101 35t100.5 -34.5t30.5 -104.5v-38q0 -60 -14 -97.5t-40.5 -62t-71.5 -49.5
q18 -33 43.5 -44.5t68.5 -11.5q70 0 135 41v309h-75v84h284z" />
    <glyph glyph-name="uni0926" unicode="&#x926;" horiz-adv-x="529" 
d="M215 391q-31 -10 -47.5 -37.5t-16.5 -78.5q0 -73 29.5 -100t93.5 -27h12q36 0 68 11v85h104v-259h-104v91q-34 -12 -81 -12h-12q-107 0 -160.5 48t-53.5 160q0 117 61 165t189 48h33v85h-340v84h549v-84h-105v-169h-137q-51 0 -82 -10z" />
    <glyph glyph-name="uni0927" unicode="&#x927;" horiz-adv-x="642" 
d="M652 654v-84h-105v-570h-104v113q-58 -21 -129 -21h-14q-104 1 -155 38.5t-51 123.5q0 44 14.5 74.5t45.5 51.5q-52 18 -76.5 51.5t-24.5 88.5q0 80 50.5 113.5t156.5 33.5h12q17 0 31 -2v-84l-31 2h-12q-54 0 -78.5 -15t-24.5 -59q1 -48 35 -63t111 -15h41v-89h-36
q-56 0 -83 -18t-27 -65t26.5 -64.5t83.5 -18.5h18q72 0 117 23v371h-85v84h294z" />
    <glyph glyph-name="uni0928" unicode="&#x928;" horiz-adv-x="570" 
d="M580 654v-84h-105v-570h-104v330h-193q-21 0 -29.5 -6t-8.5 -23q0 -30 52 -52l-42 -72q-58 22 -84 54t-26 80q0 103 133 103h198v156h-381v84h590z" />
    <glyph glyph-name="uni0929" unicode="&#x929;" horiz-adv-x="570" 
d="M0 0zM580 654v-84h-105v-570h-104v330h-193q-21 0 -29.5 -6t-8.5 -23q0 -30 52 -52l-42 -72q-58 22 -84 54t-26 80q0 103 133 103h198v156h-381v84h590zM144 0l74 74l74 -74l-74 -73z" />
    <glyph glyph-name="uni092A" unicode="&#x92a;" horiz-adv-x="575" 
d="M585 654v-84h-105v-570h-104v224q-51 -30 -114 -30q-94 0 -140.5 42t-46.5 146v188h-85v84h595zM376 312v258h-197v-188q0 -57 22 -80.5t76 -23.5q52 0 99 34z" />
    <glyph glyph-name="uni092B" unicode="&#x92b;" horiz-adv-x="826" 
d="M470 570v-147q53 26 115 26h11q103 0 150.5 -37t47.5 -130q0 -91 -47 -129t-147 -38h-12q-15 0 -32 1.5t-28 3.5v84q28 -5 54 -5h12q48 0 72 18t24 65q0 50 -24.5 66.5t-80.5 16.5h-11q-30 0 -54.5 -5.5t-49.5 -19.5v-340h-104v223q-49 -29 -114 -29q-89 0 -133 42
t-44 146v188h-85v84h846v-84h-366zM322 286.5q23 8.5 44 24.5v259h-187v-188q0 -57 19.5 -80.5t68.5 -23.5q32 0 55 8.5z" />
    <glyph glyph-name="uni092C" unicode="&#x92c;" horiz-adv-x="555" 
d="M565 654v-84h-105v-570h-104v141q-53 -26 -114 -26h-11q-103 1 -150.5 37.5t-47.5 129.5q0 91 47 129t147 38h12q15 0 32 -1.5t28 -3.5v-83q-34 4 -54 4h-12q-14 0 -21 -1l129 -147q10 4 15 7v346h-366v84h575zM253 199q14 0 20 1l-121 138q-15 -18 -15 -56
q0 -49 24.5 -65.5t80.5 -17.5h11z" />
    <glyph glyph-name="uni092D" unicode="&#x92d;" horiz-adv-x="695" 
d="M705 654v-84h-105v-570h-104v248h-201v-87h-104v382q0 23 -6.5 31.5t-24.5 8.5q-17 0 -23.5 -9t-6.5 -31v-58h-94v58q0 59 30.5 89t98.5 30q70 0 100 -29.5t30 -89.5v-211h201v238h-103v84h312z" />
    <glyph glyph-name="uni092E" unicode="&#x92e;" horiz-adv-x="587" 
d="M597 654v-84h-105v-570h-104v259h-201v-87h-104v398h-93v84h607zM388 343v227h-201v-227h201z" />
    <glyph glyph-name="uni092F" unicode="&#x92f;" horiz-adv-x="605" 
d="M615 654v-84h-105v-570h-104v175q-31 -14 -64 -21t-59 -7q-64 0 -107 14.5t-75.5 52.5t-57.5 109q75 30 103.5 61t28.5 74q0 53 -39 112h-146v84h625zM406 265v305h-167q19 -31 29.5 -63.5t10.5 -55.5q0 -52 -27 -90.5t-88 -69.5q19 -35 48.5 -47.5t70.5 -12.5
q61 0 123 34z" />
    <glyph glyph-name="uni0930" unicode="&#x930;" horiz-adv-x="474" 
d="M183 238v-43q0 -62 30 -86.5t102 -24.5h117v-84h-117q-115 0 -175.5 41.5t-60.5 153.5v234h104v-107h3q48 0 69 14t21 59v175h-286v84h494v-84h-104v-175q0 -88 -47 -122.5t-147 -34.5h-3z" />
    <glyph glyph-name="uni0931" unicode="&#x931;" horiz-adv-x="474" 
d="M0 0zM183 238v-43q0 -62 30 -86.5t102 -24.5h117v-84h-117q-115 0 -175.5 41.5t-60.5 153.5v234h104v-107h3q48 0 69 14t21 59v175h-286v84h494v-84h-104v-175q0 -88 -47 -122.5t-147 -34.5h-3zM-1 -77l74 74l74 -74l-74 -73z" />
    <glyph glyph-name="uni0932" unicode="&#x932;" horiz-adv-x="792" 
d="M802 654v-84h-105l-1 -570h-104v344q-21 12 -50 12q-46 0 -69.5 -31.5t-24.5 -92.5v-29h-25v-5h-79v29q-2 119 -87 119q-89 0 -91 -119q2 -64 31.5 -103.5t107.5 -39.5h32v-84h-32q-129 0 -186 65.5t-57 161.5q0 92 47.5 147.5t137.5 55.5q100 0 145 -70q42 80 145 80
q29 0 56 -8v138h-603v84h812z" />
    <glyph glyph-name="uni0933" unicode="&#x933;" horiz-adv-x="766" 
d="M586 570v-112q69 -13 106 -63t37 -119q0 -81 -48.5 -134t-137.5 -53q-55 0 -95.5 19.5t-64.5 54.5q-23 -35 -62.5 -54.5t-92.5 -19.5q-91 0 -141 53t-50 134t49.5 133.5t141.5 52.5q53 0 92.5 -19.5t62.5 -53.5q34 50 99 66v115h-492v84h786v-84h-190zM308 201.5
q23 28.5 23 74.5t-23 74t-70 28q-50 0 -73.5 -28t-23.5 -74t23.5 -74.5t73.5 -28.5q47 0 70 28.5zM602 350q-23 28 -71 28q-49 0 -72.5 -28t-23.5 -74t23.5 -74.5t72.5 -28.5q48 0 71 28.5t23 74.5t-23 74z" />
    <glyph glyph-name="uni0934" unicode="&#x934;" horiz-adv-x="766" 
d="M0 0zM586 570v-112q69 -13 106 -63t37 -119q0 -81 -48.5 -134t-137.5 -53q-55 0 -95.5 19.5t-64.5 54.5q-23 -35 -62.5 -54.5t-92.5 -19.5q-91 0 -141 53t-50 134t49.5 133.5t141.5 52.5q53 0 92.5 -19.5t62.5 -53.5q34 50 99 66v115h-492v84h786v-84h-190zM308 201.5
q23 28.5 23 74.5t-23 74t-70 28q-50 0 -73.5 -28t-23.5 -74t23.5 -74.5t73.5 -28.5q47 0 70 28.5zM602 350q-23 28 -71 28q-49 0 -72.5 -28t-23.5 -74t23.5 -74.5t72.5 -28.5q48 0 71 28.5t23 74.5t-23 74zM308 0l74 74l74 -74l-74 -73z" />
    <glyph glyph-name="uni0935" unicode="&#x935;" horiz-adv-x="555" 
d="M565 654v-84h-105v-570h-104v141q-53 -26 -114 -26h-11q-103 1 -150.5 37.5t-47.5 129.5q0 91 47 129t147 38h12q15 0 32 -1.5t28 -3.5v-83q-34 4 -54 4h-12q-48 0 -72 -18t-24 -65q0 -49 24.5 -65.5t80.5 -17.5h11q29 0 53.5 5.5t49.5 19.5v346h-366v84h575z" />
    <glyph glyph-name="uni0936" unicode="&#x936;" horiz-adv-x="717" 
d="M232 140q18 -32 49.5 -44t80.5 -12h60v-84h-65q-114 0 -176.5 52.5t-67.5 174.5h-66v84h105q80 0 118 40.5t39 120.5q0 63 -14.5 87t-54.5 24q-35 0 -51.5 -23t-17.5 -78v-53h-104v63q1 85 42.5 127.5t130.5 42.5q93 0 133 -46t40 -144q-1 -97 -52 -161.5t-149 -79.5
q2 -59 20 -91zM727 570h-105v-570h-104v654h209v-84z" />
    <glyph glyph-name="uni0937" unicode="&#x937;" horiz-adv-x="590" 
d="M600 654v-84h-105v-570h-104v225q-54 -31 -122 -31q-98 0 -146 42t-48 146v188h-85v84h610zM391 570h-158l158 -211v211zM202.5 301.5q23.5 -23.5 81.5 -23.5q41 0 77 17l-182 243v-156q0 -57 23.5 -80.5z" />
    <glyph glyph-name="uni0938" unicode="&#x938;" horiz-adv-x="786" 
d="M796 654v-84h-105v-570h-104v261h-177v84h177v225h-207v-175q0 -88 -47 -122.5t-147 -34.5h-6v-43q0 -62 30 -86.5t102 -24.5h150v-84h-150q-114 0 -175 41.5t-61 153.5v234h104v-107h6q48 0 69 14t21 59v175h-286v84h806z" />
    <glyph glyph-name="uni0939" unicode="&#x939;" horiz-adv-x="535" 
d="M178 393.5q-16 -10.5 -16 -37.5q0 -34 32 -61q41 16 90 16h28q82 0 126 -42.5t44 -112.5v-25h-89v25q0 31 -21.5 51t-59.5 20h-28q-35 0 -62.5 -21t-27.5 -70q0 -67 44.5 -92t116.5 -25h69v-84h-74q-117 0 -188.5 48t-71.5 158q0 59 29 99q-25 24 -43 56t-18 67
q0 68 40 96.5t124 28.5h112v82h-344v84h564v-84h-116v-166h-211q-33 0 -49 -10.5z" />
    <glyph glyph-name="uni093A" unicode="&#x93a;" horiz-adv-x="0" 
d="M-189 903h104v-290h-104v290z" />
    <glyph glyph-name="uni093B" unicode="&#x93b;" 
d="M304 570h-105v-570h-104v570h-105v84h105v249h104v-249h105v-84z" />
    <glyph glyph-name="uni093C" unicode="&#x93c;" horiz-adv-x="0" 
d="M-254 -117l74 74l74 -74l-74 -73z" />
    <glyph glyph-name="uni093D" unicode="&#x93d;" horiz-adv-x="485" 
d="M5 84h127q81 0 116 23t35 75q0 37 -21.5 65t-66.5 68q-36 32 -57.5 55.5t-37 56.5t-15.5 73q0 72 44 113t139 41h179v-84h-154q-57 0 -80.5 -16.5t-23.5 -53.5q0 -32 20.5 -58t62.5 -64q38 -34 60.5 -58.5t38.5 -59.5t16 -78q0 -87 -55.5 -134.5t-174.5 -47.5h-152v84z
" />
    <glyph glyph-name="uni093E" unicode="&#x93e;" 
d="M304 570h-105v-570h-104v570h-105v84h314v-84z" />
    <glyph glyph-name="uni093F" unicode="&#x93f;" 
d="M621.5 919q67.5 -24 99.5 -78t33 -146v-87h-104v87q0 71 -24 106.5t-67 46.5t-116 11h-36q-73 0 -116 -11t-67 -46.5t-24 -106.5v-41h105v-84h-105v-570h-104v570h-107v84h107v41q0 92 32 146t100 78t179 24h36q111 0 178.5 -24z" />
    <glyph glyph-name="uni0940" unicode="&#x940;" 
d="M304 570h-105v-570h-104v570h-105v84h105v76q0 56 -9.5 83.5t-27.5 36.5t-49 9h-18q-31 0 -49 -9t-27.5 -36.5t-9.5 -83.5v-122h-104v127q0 77 19.5 122.5t61 65.5t109.5 20h18q68 0 109.5 -20t61 -65.5t19.5 -122.5v-81h105v-84z" />
    <glyph glyph-name="uni0941" unicode="&#x941;" horiz-adv-x="0" 
d="M-307.5 -268.5q-77.5 38.5 -145.5 97.5l56 63q60 -54 123 -84.5t139 -30.5q50 0 76 18.5t26 54.5q0 32 -21 49.5t-60 17.5h-97v84h108q77 0 125 -39t49 -108q0 -79 -54.5 -120t-146.5 -41q-100 0 -177.5 38.5z" />
    <glyph glyph-name="uni0942" unicode="&#x942;" horiz-adv-x="0" 
d="M-308.5 -261.5q-47.5 38.5 -48.5 108.5q0 79 54.5 120t146.5 41q80 0 140.5 -32.5t101.5 -80t87 -118.5l-76 -51q-47 70 -78.5 109t-73 64t-96.5 25q-50 0 -76 -19t-26 -55q0 -31 21 -48.5t60 -17.5h71v-84h-82q-78 0 -125.5 38.5z" />
    <glyph glyph-name="uni0943" unicode="&#x943;" horiz-adv-x="0" 
d="M-250 -213q-42 33 -42 104q0 65 39.5 101t122.5 36h45v-79h-40q-32 0 -50 -14.5t-18 -43.5q0 -31 19.5 -44.5t58.5 -13.5q28 0 53 8.5t52 27.5v-86q-51 -29 -110 -29q-88 0 -130 33z" />
    <glyph glyph-name="uni0944" unicode="&#x944;" horiz-adv-x="0" 
d="M14 -271v-86q-48 -24 -110 -24q-86 0 -126.5 29t-40.5 92q0 60 43 90q-68 26 -68 98q0 56 35 85.5t117 29.5q39 0 60 -5v-79q-25 5 -55 5q-32 0 -45 -11.5t-13 -33.5q0 -23 17.5 -34.5t65.5 -11.5h50v-59h-10v-15h-35q-63 0 -63 -49q0 -28 17 -40t56 -12q57 0 105 31z
" />
    <glyph glyph-name="uni0945" unicode="&#x945;" horiz-adv-x="0" 
d="M-342 879v15h94v-15q0 -43 27 -64t83 -21t83 21t27 64v15h94v-15q0 -169 -204 -169t-204 169z" />
    <glyph glyph-name="uni0946" unicode="&#x946;" horiz-adv-x="600" 
d="M-789 674q0 37 -8.5 58t-31.5 31t-67 10h-167q-85 0 -132 20t-65.5 60t-18.5 108v25h104v-25q0 -41 7.5 -62t31.5 -31.5t73 -10.5h167q90 0 135.5 -19t60.5 -57t15 -107v-50h-104v50z" />
    <glyph glyph-name="uni0947" unicode="&#x947;" horiz-adv-x="0" 
d="M-219 758q-10 48 -31.5 64.5t-66.5 16.5h-85v84h85q62 0 99 -12t62 -47t41 -106l31 -134h-104z" />
    <glyph glyph-name="uni0948" unicode="&#x948;" horiz-adv-x="0" 
d="M-84 624h-104l-60 75q-31 38 -65 52t-102 14h-95v84h95q59 0 95 -8t62 -26t54 -52l-20 87q-9 41 -34 55.5t-77 14.5h-85v84h85q62 0 99 -11.5t61.5 -44.5t39.5 -98z" />
    <glyph glyph-name="uni0949" unicode="&#x949;" 
d="M0 0zM304 570h-105v-570h-104v570h-105v84h314v-84zM-58 899v15h94v-15q0 -43 27 -64t83 -21t83 21t27 64v15h94v-15q0 -169 -204 -169t-204 169z" />
    <glyph glyph-name="uni094A" unicode="&#x94a;" 
d="M304 570h-105v-570h-104v570h-105v84h105v40q0 37 -8.5 58t-31.5 31t-67 10h-167q-85 0 -132 20t-65.5 60t-18.5 108v25h104v-25q0 -41 7.5 -62t31.5 -31.5t73 -10.5h167q90 0 135.5 -19t60.5 -57t15 -107v-40h105v-84z" />
    <glyph glyph-name="uni094B" unicode="&#x94b;" 
d="M304 570h-105v-570h-104v570h-105v84h104l-28 124q-11 48 -32.5 64.5t-66.5 16.5h-85v84h85q63 0 100 -12t62 -47t41 -106l28 -124h106v-84z" />
    <glyph glyph-name="uni094C" unicode="&#x94c;" 
d="M304 570h-105v-570h-104v570h-105v84h98l-52 65q-31 38 -65 52t-102 14h-95v84h95q59 0 95 -8t62 -26t54 -52l-20 87q-9 41 -34 55.5t-77 14.5h-85v84h85q62 0 99.5 -11.5t61.5 -44.5t39 -98l49 -216h106v-84z" />
    <glyph glyph-name="uni094D" unicode="&#x94d;" horiz-adv-x="0" 
d="M-218 -129l60 68l203 -156l-62 -69z" />
    <glyph glyph-name="uni094E" unicode="&#x94e;" horiz-adv-x="281" 
d="M291 570h-105v-570h-104v654h209v-84z" />
    <glyph glyph-name="uni0950" unicode="&#x950;" horiz-adv-x="934" 
d="M585 705l-74 73l74 74l74 -74zM381 718v15h94v-15q0 -43 27 -64t83 -21t83 21t27 64v15h94v-15q0 -169 -204 -169t-204 169zM845.5 440q46.5 -54 46.5 -176q0 -86 -22 -136.5t-65.5 -72t-112.5 -21.5h-15q-95 0 -143 42.5t-56 145.5h-121v-5q0 -94 -74.5 -135.5
t-189.5 -41.5h-58v84h58q69 0 114.5 22t45.5 81q0 43 -28.5 63.5t-92.5 20.5h-51v84h52q61 0 90.5 25.5t29.5 67.5q0 45 -32 63.5t-98 18.5h-57v84h57q120 0 177 -35.5t57 -118.5q0 -50 -22.5 -85.5t-68.5 -58.5q43 -14 67 -50h145q7 101 56 144.5t153 43.5q112 0 158.5 -54
zM745.5 130q20.5 12 31.5 44t11 90q0 83 -23.5 114.5t-77.5 31.5q-38 0 -61 -12.5t-34 -44.5t-11 -89q0 -59 11 -90.5t33 -43.5t58 -12h9q33 0 53.5 12z" />
    <glyph glyph-name="uni0951" unicode="&#x951;" horiz-adv-x="0" 
d="M-189 1002h104v-263h-104v263z" />
    <glyph glyph-name="uni0952" unicode="&#x952;" horiz-adv-x="0" 
d="M-385 -200h462v-94h-462v94z" />
    <glyph glyph-name="uni0953" unicode="&#x953;" horiz-adv-x="0" 
d="M-424 991h127l155 -225h-103z" />
    <glyph glyph-name="uni0954" unicode="&#x954;" horiz-adv-x="0" 
d="M-51 991h127l-179 -225h-103z" />
    <glyph glyph-name="uni0956" unicode="&#x956;" horiz-adv-x="0" 
d="M-277 -177.5q-61 32.5 -95 85.5l64 51q34 -41 75.5 -63t94.5 -22t94.5 22t75.5 63l64 -51q-34 -53 -95 -85.5t-139 -32.5t-139 32.5z" />
    <glyph glyph-name="uni0957" unicode="&#x957;" horiz-adv-x="0" 
d="M-277 -177.5q-61 32.5 -95 85.5l64 51q34 -41 75.5 -63t94.5 -22t94.5 22t75.5 63l64 -51q-34 -53 -95 -85.5t-139 -32.5t-139 32.5zM-277 -352.5q-61 32.5 -95 85.5l64 51q34 -41 75.5 -63t94.5 -22t94.5 22t75.5 63l64 -51q-34 -53 -95 -85.5t-139 -32.5t-139 32.5z
" />
    <glyph glyph-name="uni0958" unicode="&#x958;" horiz-adv-x="816" 
d="M0 0zM460 570v-147q53 26 115 26h11q103 0 150.5 -37t47.5 -130q0 -91 -47 -129t-147 -38h-12q-15 0 -32 1.5t-28 3.5v84q28 -5 54 -5h12q48 0 72 18t24 65q0 50 -24.5 66.5t-80.5 16.5h-11q-30 0 -54.5 -5.5t-49.5 -19.5v-340h-104v141q-53 -26 -114 -26h-11
q-103 1 -150.5 37.5t-47.5 129.5q0 91 47 129t147 38h12q15 0 32 -1.5t28 -3.5v-83q-34 4 -54 4h-12q-48 0 -72 -18t-24 -65q0 -49 24.5 -65.5t80.5 -17.5h11q29 0 53.5 5.5t49.5 19.5v346h-366v84h836v-84h-366zM137 -10l74 74l74 -74l-74 -73z" />
    <glyph glyph-name="uni0959" unicode="&#x959;" horiz-adv-x="893" 
d="M0 0zM903 570h-105v-570h-104v172q-41 -17 -93 -17h-18q-164 0 -164 147q0 73 41.5 110t107.5 37h12q27 0 57 -5v-83q-21 4 -42 4h-12q-27 0 -43.5 -13.5t-16.5 -49.5q0 -38 18.5 -50.5t59.5 -12.5h15q42 0 78 16v315h-314v-175q0 -88 -47 -122.5t-147 -34.5h-6v-43
q0 -62 30 -86.5t102 -24.5h165v-84h-165q-114 0 -175 41.5t-61 153.5v234h104v-107h6q48 0 69 14t21 59v175h-286v84h913v-84zM55 -101l74 74l74 -74l-74 -73z" />
    <glyph glyph-name="uni095A" unicode="&#x95a;" horiz-adv-x="640" 
d="M0 0zM650 570h-105v-570h-104v570h-155v-265q0 -130 -111 -130q-50 0 -84 25t-56 80l78 42q13 -32 24.5 -47.5t24.5 -15.5q12 0 16 10.5t4 35.5v265h-192v84h660v-84zM159 0l74 74l74 -74l-74 -73z" />
    <glyph glyph-name="uni095B" unicode="&#x95b;" horiz-adv-x="688" 
d="M0 0zM698 654v-84h-105v-570h-104v355h-89v-63q0 -99 -38.5 -144t-137.5 -45q-92 0 -131 46t-39 143v147h99v-154q0 -50 15.5 -74t55.5 -24q43 0 57.5 23t14.5 75v154h193v131h-499v84h708zM151 -20l74 74l74 -74l-74 -73z" />
    <glyph glyph-name="uni095C" unicode="&#x95c;" horiz-adv-x="521" 
d="M0 0zM175 381.5q-16 -10.5 -16 -37.5q0 -16 6.5 -29.5t15.5 -20.5h113q189 0 189 -148q0 -80 -48.5 -120t-138.5 -40h-11q-81 0 -142.5 19t-119.5 56l39 80q57 -37 107.5 -53.5t109.5 -16.5h13q87 0 87 68q0 37 -21.5 54t-63.5 17h-167q-26 19 -49 58.5t-23 83.5
q0 68 40.5 96t128.5 28h88v94h-322v84h541v-84h-115v-126h-3v-52h-189q-33 0 -49 -10.5zM199 -123l74 74l74 -74l-74 -73z" />
    <glyph glyph-name="uni095D" unicode="&#x95d;" horiz-adv-x="519" 
d="M0 0zM197 378.5q-27 -11.5 -41.5 -43.5t-14.5 -91t13 -91t37.5 -43.5t65.5 -11.5h19q58 0 85 17t27 58v31q0 19 -7.5 26.5t-25.5 7.5t-26 -8t-8 -26v-43h-94v52q0 54 31.5 79t103.5 25q68 0 99 -29t31 -85v-29q0 -81 -53 -120.5t-163 -39.5h-19q-113 0 -166.5 52.5
t-53.5 177.5q0 126 56 178t174 52h53v96h-330v84h539v-84h-105v-180h-157q-43 0 -70 -11.5zM194 -102l74 74l74 -74l-74 -73z" />
    <glyph glyph-name="uni095E" unicode="&#x95e;" horiz-adv-x="826" 
d="M0 0zM470 570v-147q53 26 115 26h11q103 0 150.5 -37t47.5 -130q0 -91 -47 -129t-147 -38h-12q-15 0 -32 1.5t-28 3.5v84q28 -5 54 -5h12q48 0 72 18t24 65q0 50 -24.5 66.5t-80.5 16.5h-11q-30 0 -54.5 -5.5t-49.5 -19.5v-340h-104v223q-49 -29 -114 -29q-89 0 -133 42
t-44 146v188h-85v84h846v-84h-366zM322 286.5q23 8.5 44 24.5v259h-187v-188q0 -57 19.5 -80.5t68.5 -23.5q32 0 55 8.5zM74 80l74 74l74 -74l-74 -73z" />
    <glyph glyph-name="uni095F" unicode="&#x95f;" horiz-adv-x="605" 
d="M0 0zM615 654v-84h-105v-570h-104v175q-31 -14 -64 -21t-59 -7q-64 0 -107 14.5t-75.5 52.5t-57.5 109q75 30 103.5 61t28.5 74q0 53 -39 112h-146v84h625zM406 265v305h-167q19 -31 29.5 -63.5t10.5 -55.5q0 -52 -27 -90.5t-88 -69.5q19 -35 48.5 -47.5t70.5 -12.5
q61 0 123 34zM66 40l74 74l74 -74l-74 -73z" />
    <glyph glyph-name="uni0960" unicode="&#x960;" horiz-adv-x="837" 
d="M868 -103v-86q-47 -22 -118 -22q-85 0 -127 29.5t-42 90.5q0 57 41 86q-36 14 -51 38.5t-15 57.5q0 76 69 99l-44 87h-116v-277h-104v202l-249 -211l-61 69l305 256q-43 41 -79 55.5t-81 14.5q-46 0 -141 -26v91q94 25 146 25q46 0 83 -14t77 -48v156h-371v84h856v-84
h-381v-209h105v116h104v-178l49 -96q30 0 55 -5v-79q-19 5 -60 5q-32 0 -45 -10.5t-13 -31.5t15.5 -31t57.5 -10h65v-62h-10v-18h-50q-53 0 -53 -45q0 -26 18.5 -37t54.5 -11q59 0 110 29z" />
    <glyph glyph-name="uni0961" unicode="&#x961;" horiz-adv-x="779" 
d="M594 570v-145q61 -12 93.5 -51t32.5 -94q0 -56 -26 -94t-72 -79q-30 -28 -43.5 -45t-13.5 -36q-2 -54 71 -54q25 0 63 9v-86q-32 -8 -66 -8l-20 1q-21 -17 -21 -48q0 -26 17 -37t53 -11q30 0 54 6.5t49 22.5v-86q-28 -12 -55.5 -17t-62.5 -5q-80 0 -119.5 29t-39.5 89
q0 52 33 82q-61 38 -61 106q1 41 22 70.5t61 66.5q37 35 55 59.5t18 57.5q0 35 -20 54t-58 19q-88 0 -90 -119v-29h-104v29q-2 119 -87 119q-89 0 -91 -119q2 -64 31.5 -103.5t107.5 -39.5h32v-84h-32q-129 0 -186 65.5t-57 161.5q0 92 47.5 147.5t137.5 55.5q53 0 90.5 -20
t58.5 -56q31 54 94 70v146h-500v84h799v-84h-195z" />
    <glyph glyph-name="uni0962" unicode="&#x962;" horiz-adv-x="0" 
d="M5 -362v-80q-31 -24 -98 -24q-57 0 -90 27.5t-33 70.5q0 28 14 49.5t41 49.5q24 25 35.5 42.5t11.5 38.5q0 44 -48 44q-28 0 -42.5 -19t-14.5 -53v-34h-78v34q-1 34 -15.5 53t-43.5 19t-44 -20.5t-15 -56.5q1 -46 24.5 -75t85.5 -29h8v-77h-8q-109 0 -156 53t-47 131
q0 74 35.5 117t104.5 43q73 0 108 -54q24 33 61 46v136h104v-137q36 -13 55 -43t19 -69q0 -42 -17 -71t-47 -61q-18 -19 -25.5 -29.5t-7.5 -21.5q0 -28 43 -28q39 0 80 28z" />
    <glyph glyph-name="uni0963" unicode="&#x963;" horiz-adv-x="0" 
d="M21 -508v-80q-31 -20 -92 -20q-58 0 -90 24.5t-32 71.5q0 37 22 66q-46 29 -46 78q0 28 14 49.5t41 49.5q24 24 36 42t12 39q0 43 -49 43q-27 0 -41.5 -18.5t-14.5 -52.5v-31h-15v-3h-63v34q-1 34 -15.5 53t-43.5 19t-44 -20.5t-15 -56.5q1 -46 24.5 -75t85.5 -29h8v-77
h-8q-109 0 -156 53t-47 131q0 74 35.5 117t104.5 43q73 0 108 -54q24 33 61 46v136h104v-137q36 -13 55 -43t19 -69q0 -42 -17.5 -71t-47.5 -61q-18 -19 -25.5 -29.5t-7.5 -21.5q0 -28 43 -28q29 0 59 17v-80q-19 -10 -55 -13h-10q-13 -17 -13 -36q0 -16 10 -23t32 -7
q40 0 74 24z" />
    <glyph glyph-name="uni0964" unicode="&#x964;" horiz-adv-x="467" 
d="M261 634h104v-634h-104v634z" />
    <glyph glyph-name="uni0965" unicode="&#x965;" horiz-adv-x="710" 
d="M261 0zM261 634h104v-634h-104v634zM521 634h104v-634h-104v634z" />
    <glyph glyph-name="uni0966" unicode="&#x966;" horiz-adv-x="638" 
d="M190.5 139q-54.5 30 -83.5 81.5t-29 114.5t29 114.5t83.5 81.5t128.5 30t128.5 -30t83.5 -81.5t29 -114.5t-29 -114.5t-83.5 -81.5t-128.5 -30t-128.5 30zM420 233q36 40 36 102t-36 102t-101 40t-101 -40t-36 -102t36 -102t101 -40t101 40z" />
    <glyph glyph-name="uni0967" unicode="&#x967;" horiz-adv-x="480" 
d="M385.5 309.5q-54.5 -70.5 -142.5 -101.5l144 -166l-68 -59l-176 205q-8 -1 -23 -1h-60v84h60q58 0 107.5 23.5t79.5 70t30 112.5q0 62 -19 86.5t-68 24.5q-46 0 -68 -26t-23 -85v-38h-104v38q1 97 48 146t147 49q101 0 146 -49t45 -146q-1 -97 -55.5 -167.5z" />
    <glyph glyph-name="uni0968" unicode="&#x968;" horiz-adv-x="494" 
d="M457 84v-84h-60q-125 0 -197.5 62t-72.5 203v7h-56v84h102q74 0 109 23t36 84q-1 61 -36 84t-109 23h-102v84h102q127 0 187.5 -44t61.5 -147q-1 -90 -47.5 -135t-143.5 -54v-9q1 -103 45.5 -142t120.5 -39h60z" />
    <glyph glyph-name="uni0969" unicode="&#x969;" horiz-adv-x="484" 
d="M416 304.5q37 -41.5 37 -101.5q0 -91 -60.5 -137t-157.5 -46q-45 0 -85 10v-78h-99v249h99v-85q39 -12 85 -12q53 0 86 24t33 78q0 105 -181 105h-66v84h67q60 0 90 27t30 69q0 43 -30.5 61t-94.5 18h-107v84h107q114 0 169 -36t55 -118q0 -49 -20 -82t-62 -54
q68 -18 105 -59.5z" />
    <glyph glyph-name="uni096A" unicode="&#x96a;" horiz-adv-x="574" 
d="M508.5 489q-13.5 -44 -38.5 -70.5t-70 -55.5l-32 -21q53 -37 81 -78t28 -103q0 -51 -23.5 -91.5t-66.5 -63.5t-100 -23t-100 23t-66.5 63.5t-23.5 91.5q0 58 29.5 100.5t80.5 79.5l-33 22q-45 29 -71 58t-38.5 72t-12.5 112v49h104v-49q0 -64 10 -96t32.5 -52t80.5 -57
l8 -6l8 6q54 35 77.5 56.5t34.5 54.5t11 94v49h104v-49q0 -72 -13.5 -116zM349.5 91q23.5 23 23.5 70q0 42 -21 70.5t-64 57.5q-43 -30 -65 -59.5t-22 -68.5q0 -47 23.5 -70t62.5 -23t62.5 23z" />
    <glyph glyph-name="uni096B" unicode="&#x96b;" horiz-adv-x="572" 
d="M487 534v-375q0 -89 -58.5 -132.5t-159.5 -43.5q-86 0 -153 29l-17 97q36 -20 74 -31t86 -11q57 0 90.5 23.5t33.5 83.5v83q-49 -29 -111 -29q-95 0 -141 42t-46 146v238h104v-238q0 -57 19.5 -80.5t68.5 -23.5q62 0 106 32v189z" />
    <glyph glyph-name="uni096C" unicode="&#x96c;" horiz-adv-x="507" 
d="M472 242v-259h-104v87q-37 -8 -70 -8h-18q-103 1 -156 46t-53 129q0 98 75 140q-53 15 -78.5 49t-25.5 92q0 81 55 115t174 34h18q43 0 75 -8v-86q-33 10 -75 10h-18q-66 0 -95.5 -15.5t-29.5 -62.5q1 -48 34 -63.5t107 -15.5h29v-20h10v-64h-46q-51 0 -78 -25.5
t-27 -77.5q0 -91 105 -93h18q40 0 70 10v86h104z" />
    <glyph glyph-name="uni096D" unicode="&#x96d;" horiz-adv-x="590" 
d="M166.5 49.5q-49.5 24.5 -74.5 83t-25 158.5v363h104v-358q0 -76 13.5 -116.5t40 -55.5t70.5 -15q43 0 69.5 15t40.5 55.5t14 116.5v262q0 17 -4.5 23.5t-18.5 6.5q-13 0 -18.5 -7t-5.5 -23v-100h-104v105q0 51 30 77.5t98 26.5t97.5 -26.5t29.5 -77.5v-272
q0 -146 -56.5 -206t-171.5 -60q-79 0 -128.5 24.5z" />
    <glyph glyph-name="uni096E" unicode="&#x96e;" horiz-adv-x="471" 
d="M105 64.5q-83 64.5 -83 173.5q0 55 22 102.5t61 91t104 99.5l152 132l65 -71l-152 -132q-54 -47 -84.5 -79.5t-47 -67t-16.5 -75.5q0 -74 56 -114t173 -40h57v-84h-57q-167 0 -250 64.5z" />
    <glyph glyph-name="uni096F" unicode="&#x96f;" horiz-adv-x="521" 
d="M281 134q-1 1 -22 19q-77 69 -122 115.5t-76 101t-31 111.5q0 94 56 140t159 46q87 0 136 -46.5t49 -139.5v-63h-104v63q0 102 -87 102q-50 0 -77 -23.5t-27 -78.5q0 -42 22 -81t56 -73t98 -91l36 -32l155 -139l-66 -70z" />
    <glyph glyph-name="uni0970" unicode="&#x970;" horiz-adv-x="461" 
d="M143 128q-40 21 -63.5 60t-23.5 89q0 51 23.5 89t63.5 59t88 21t88 -21t63 -59t23 -89q0 -50 -23 -89t-63 -60t-88 -21t-88 21zM289 212q22 26 22 65q0 40 -22 65t-58 25t-58.5 -25t-22.5 -65q0 -39 22.5 -65t58.5 -26t58 26z" />
    <glyph glyph-name="uni0971" unicode="&#x971;" horiz-adv-x="274" 
d="M63 612l74 74l74 -74l-74 -73z" />
    <glyph glyph-name="uni0972" unicode="&#x972;" horiz-adv-x="732" 
d="M35 0zM742 654v-84h-105v-570h-104v222h-176v-5q0 -94 -74.5 -135.5t-189.5 -41.5h-58v84h58q69 0 114.5 22t45.5 81q0 43 -28.5 63.5t-92.5 20.5h-51v84h52q61 0 90.5 25.5t29.5 67.5q0 45 -32 63.5t-98 18.5h-57v84h57q120 0 177 -35.5t57 -118.5q0 -50 -22.5 -85.5
t-68.5 -58.5q43 -14 67 -50h200v264h-116v84h325zM380 899v15h94v-15q0 -43 27 -64t83 -21t83 21t27 64v15h94v-15q0 -169 -204 -169t-204 169z" />
    <glyph glyph-name="uni0973" unicode="&#x973;" horiz-adv-x="732" 
d="M742 654v-84h-105v-570h-104v222h-176v-5q0 -94 -74.5 -135.5t-189.5 -41.5h-58v84h58q69 0 114.5 22t45.5 81q0 43 -28.5 63.5t-92.5 20.5h-51v84h52q61 0 90.5 25.5t29.5 67.5q0 45 -32 63.5t-98 18.5h-57v84h57q120 0 177 -35.5t57 -118.5q0 -50 -22.5 -85.5
t-68.5 -58.5q43 -14 67 -50h200v264h-116v84h117v249h102v-249h106z" />
    <glyph glyph-name="uni0974" unicode="&#x974;" horiz-adv-x="1026" 
d="M1036 570h-105v-570h-104v570h-190v-570h-104v222h-176v-5q0 -94 -74.5 -135.5t-189.5 -41.5h-58v84h58q69 0 114.5 22t45.5 81q0 43 -28.5 63.5t-92.5 20.5h-51v84h52q61 0 90.5 25.5t29.5 67.5q0 45 -32 63.5t-98 18.5h-57v84h57q120 0 177 -35.5t57 -118.5
q0 -50 -22.5 -85.5t-68.5 -58.5q43 -14 67 -50h200v264h-116v84h410v249h104v-249h105v-84z" />
    <glyph glyph-name="uni0976" unicode="&#x976;" horiz-adv-x="732" 
d="M35 0zM742 654v-84h-105v-570h-104v222h-176v-5q0 -94 -74.5 -135.5t-189.5 -41.5h-58v84h58q69 0 114.5 22t45.5 81q0 43 -28.5 63.5t-92.5 20.5h-51v84h52q61 0 90.5 25.5t29.5 67.5q0 45 -32 63.5t-98 18.5h-57v84h57q120 0 177 -35.5t57 -118.5q0 -50 -22.5 -85.5
t-68.5 -58.5q43 -14 67 -50h200v264h-116v84h325zM335 -177.5q-61 32.5 -95 85.5l64 51q34 -41 75.5 -63t94.5 -22t94.5 22t75.5 63l64 -51q-34 -53 -95 -85.5t-139 -32.5t-139 32.5z" />
    <glyph glyph-name="uni0977" unicode="&#x977;" horiz-adv-x="732" 
d="M35 0zM742 654v-84h-105v-570h-104v222h-176v-5q0 -94 -74.5 -135.5t-189.5 -41.5h-58v84h58q69 0 114.5 22t45.5 81q0 43 -28.5 63.5t-92.5 20.5h-51v84h52q61 0 90.5 25.5t29.5 67.5q0 45 -32 63.5t-98 18.5h-57v84h57q120 0 177 -35.5t57 -118.5q0 -50 -22.5 -85.5
t-68.5 -58.5q43 -14 67 -50h200v264h-116v84h325zM335 -177.5q-61 32.5 -95 85.5l64 51q34 -41 75.5 -63t94.5 -22t94.5 22t75.5 63l64 -51q-34 -53 -95 -85.5t-139 -32.5t-139 32.5zM335 -352.5q-61 32.5 -95 85.5l64 51q34 -41 75.5 -63t94.5 -22t94.5 22t75.5 63l64 -51
q-34 -53 -95 -85.5t-139 -32.5t-139 32.5z" />
    <glyph glyph-name="uni0979" unicode="&#x979;" horiz-adv-x="688" 
d="M0 0zM698 654v-84h-105v-570h-104v355h-89v-63q0 -99 -38.5 -144t-137.5 -45q-92 0 -131 46t-39 143v147h99v-154q0 -50 15.5 -74t55.5 -24q43 0 57.5 23t14.5 75v154h193v131h-499v84h708zM45 8l74 74l74 -74l-74 -73zM153 -98l74 74l74 -74l-74 -73zM261 8l74 74
l74 -74l-74 -73z" />
    <glyph glyph-name="uni097A" unicode="&#x97a;" horiz-adv-x="580" 
d="M615 654v-84h-105v-570h-104v175q-31 -14 -64 -21t-59 -7q-64 0 -107 14.5t-75.5 52.5t-57.5 109q75 30 103.5 61t28.5 74q0 53 -39 112h-146v84h625zM406 570h-149l149 -199v199zM212.5 243.5q29.5 -12.5 70.5 -12.5q55 0 111 28l-118 158q-8 -39 -35 -69.5t-77 -56.5
q19 -35 48.5 -47.5z" />
    <glyph glyph-name="uni097B" unicode="&#x97b;" horiz-adv-x="640" 
d="M650 570h-105v-570h-10v-40h-485v84h391v526h-155v-265q0 -130 -111 -130q-50 0 -84 25t-56 80l78 42q13 -32 24.5 -47.5t24.5 -15.5q12 0 16 10.5t4 35.5v265h-192v84h660v-84z" />
    <glyph glyph-name="uni097C" unicode="&#x97c;" horiz-adv-x="668" 
d="M698 654v-84h-105v-570h-13v-40h-530v84h439v311h-89v-63q0 -99 -38.5 -144t-137.5 -45q-92 0 -131 46t-39 143v147h99v-154q0 -50 15.5 -74t55.5 -24q43 0 57.5 23t14.5 75v154h193v131h-499v84h708z" />
    <glyph glyph-name="uni097D" unicode="&#x97d;" horiz-adv-x="470" 
d="M371.5 316.5q-50.5 -48.5 -155.5 -54.5v-262h-104v345h71q71 0 103 26.5t32 86.5t-36 86t-109 26h-102v84h102q125 0 187 -48t62 -148q0 -93 -50.5 -141.5z" />
    <glyph glyph-name="uni097E" unicode="&#x97e;" horiz-adv-x="521" 
d="M175 381.5q-16 -10.5 -16 -37.5q0 -16 6.5 -29.5t15.5 -20.5h113q189 0 189 -148q0 -80 -48.5 -120t-138.5 -40h-11q-81 0 -142.5 19t-119.5 56l39 80q57 -37 107.5 -53.5t109.5 -16.5h13q87 0 87 68q0 37 -21.5 54t-63.5 17h-167q-26 19 -49 58.5t-23 83.5q0 68 40.5 96
t128.5 28h88v94h-322v84h541v-84h-115v-126h-3v-52h-189q-33 0 -49 -10.5zM50 -76h420v-84h-420v84z" />
    <glyph glyph-name="uni097F" unicode="&#x97f;" horiz-adv-x="555" 
d="M565 654v-84h-105v-570h-12v-62h-398v84h306v119q-53 -26 -114 -26h-11q-103 1 -150.5 37.5t-47.5 129.5q0 91 47 129t147 38h12q15 0 32 -1.5t28 -3.5v-83q-34 4 -54 4h-12q-14 0 -21 -1l129 -147q10 4 15 7v346h-366v84h575zM253 199q14 0 20 1l-121 138
q-15 -18 -15 -56q0 -49 24.5 -65.5t80.5 -17.5h11z" />
    <glyph glyph-name="Wgrave" unicode="&#x1e80;" horiz-adv-x="1123" 
d="M43 0zM1081 758l-210 -767h-138l-171 598l-170 -598h-138l-211 767h117l163 -619l171 619h135l172 -619l162 619h118zM394 989h133l103 -153h-115z" />
    <glyph glyph-name="wgrave" unicode="&#x1e81;" horiz-adv-x="887" 
d="M25 0zM862 556l-163 -565h-128l-127 402l-127 -402h-128l-164 565h118l111 -421l123 421h133l124 -421l110 421h118zM270 809h133l103 -153h-115z" />
    <glyph glyph-name="Wacute" unicode="&#x1e82;" horiz-adv-x="1123" 
d="M43 0zM1081 758l-210 -767h-138l-171 598l-170 -598h-138l-211 767h117l163 -619l171 619h135l172 -619l162 619h118zM606 989h133l-121 -153h-115z" />
    <glyph glyph-name="wacute" unicode="&#x1e83;" horiz-adv-x="887" 
d="M25 0zM862 556l-163 -565h-128l-127 402l-127 -402h-128l-164 565h118l111 -421l123 421h133l124 -421l110 421h118zM486 809h133l-121 -153h-115z" />
    <glyph glyph-name="Wdieresis" unicode="&#x1e84;" horiz-adv-x="1123" 
d="M43 0zM1081 758l-210 -767h-138l-171 598l-170 -598h-138l-211 767h117l163 -619l171 619h135l172 -619l162 619h118zM615 978h104v-131h-104v131zM407 978h104v-131h-104v131z" />
    <glyph glyph-name="wdieresis" unicode="&#x1e85;" horiz-adv-x="887" 
d="M25 0zM862 556l-163 -565h-128l-127 402l-127 -402h-128l-164 565h118l111 -421l123 421h133l124 -421l110 421h118zM496 798h104v-131h-104v131zM288 798h104v-131h-104v131z" />
    <glyph glyph-name="Ygrave" unicode="&#x1ef2;" horiz-adv-x="718" 
d="M28 0zM417 293v-293h-116v293l-273 465h120l211 -365l212 365h120zM191 989h133l103 -153h-115z" />
    <glyph glyph-name="ygrave" unicode="&#x1ef3;" horiz-adv-x="565" 
d="M20 0zM545 556l-240 -645q-24 -66 -47.5 -100t-55 -48t-82.5 -14q-37 0 -69 9v101q27 -6 55 -6q36 0 56.5 19t41.5 73l21 57l-205 554h118l143 -404l151 404h113zM109 809h133l103 -153h-115z" />
    <glyph glyph-name="uni200D" unicode="&#x200d;" horiz-adv-x="0" 
 />
    <glyph glyph-name="endash" unicode="&#x2013;" horiz-adv-x="500" 
d="M0 348h500v-103h-500v103z" />
    <glyph glyph-name="emdash" unicode="&#x2014;" horiz-adv-x="1000" 
d="M125 348h750v-103h-750v103z" />
    <glyph glyph-name="quoteleft" unicode="&#x2018;" horiz-adv-x="284" 
d="M57 441zM117 441h120l-76 317h-104z" />
    <glyph glyph-name="quoteright" unicode="&#x2019;" horiz-adv-x="284" 
d="M47 441zM107 758h120l-76 -317h-104z" />
    <glyph glyph-name="quotesinglbase" unicode="&#x201a;" horiz-adv-x="284" 
d="M47 0zM107 166h120l-76 -317h-104z" />
    <glyph glyph-name="quotedblleft" unicode="&#x201c;" horiz-adv-x="484" 
d="M161 758l76 -317h-120l-60 317h104zM437 441h-120l-60 317h104z" />
    <glyph glyph-name="quotedblright" unicode="&#x201d;" horiz-adv-x="484" 
d="M47 441zM107 758h120l-76 -317h-104zM307 758h120l-76 -317h-104z" />
    <glyph glyph-name="quotedblbase" unicode="&#x201e;" horiz-adv-x="484" 
d="M107 166h120l-76 -317h-104zM427 166l-76 -317h-104l60 317h120z" />
    <glyph glyph-name="dagger" unicode="&#x2020;" horiz-adv-x="464" 
d="M429 531h-139v-484h-116v484h-139v109h139v165h116v-165h139v-109z" />
    <glyph glyph-name="daggerdbl" unicode="&#x2021;" horiz-adv-x="464" 
d="M290 531v-191h139v-109h-139v-410h-116v410h-139v109h139v191h-139v109h139v165h116v-165h139v-109h-139z" />
    <glyph glyph-name="bullet" unicode="&#x2022;" horiz-adv-x="347" 
d="M106 263.5q-31 18.5 -49.5 49.5t-18.5 68q0 38 18.5 69t49.5 48.5t68 17.5q58 0 96.5 -38.5t38.5 -96.5q0 -37 -17.5 -68t-48.5 -49.5t-69 -18.5q-37 0 -68 18.5z" />
    <glyph glyph-name="ellipsis" unicode="&#x2026;" horiz-adv-x="852" 
d="M80 166h124v-166h-124v166zM364 166h124v-166h-124v166zM772 166v-166h-124v166h124z" />
    <glyph glyph-name="perthousand" unicode="&#x2030;" horiz-adv-x="1484" 
d="M676 773h98l-417 -806h-98zM131 337.5q-47 27.5 -73 74.5t-26 104t26 104t73 74t107 27q61 0 107.5 -27t72 -74t25.5 -104t-25.5 -104t-72.5 -74.5t-107 -27.5t-107 27.5zM320.5 428.5q30.5 35.5 30.5 87.5t-30.5 87t-82.5 35q-51 0 -82.5 -35t-31.5 -87t31.5 -87.5
t82.5 -35.5q52 0 82.5 35.5zM680 10.5q-47 27.5 -73 74.5t-26 104t26 104t73 74t107 27q61 0 107.5 -27t72 -74t25.5 -104t-25.5 -104t-72.5 -74.5t-107 -27.5t-107 27.5zM1140 10.5q-47 27.5 -73 74.5t-26 104t26 104t73 74t107 27q61 0 107.5 -27t72 -74t25.5 -104
t-25.5 -104t-72.5 -74.5t-107 -27.5t-107 27.5zM869.5 101.5q30.5 35.5 30.5 87.5q0 53 -30.5 87.5t-82.5 34.5q-51 0 -82.5 -35t-31.5 -87t31.5 -87.5t82.5 -35.5q52 0 82.5 35.5zM1329.5 101.5q30.5 35.5 30.5 87.5q0 53 -30.5 87.5t-82.5 34.5q-51 0 -82.5 -35t-31.5 -87
t31.5 -87.5t82.5 -35.5q52 0 82.5 35.5z" />
    <glyph glyph-name="guilsinglleft" unicode="&#x2039;" horiz-adv-x="490" 
d="M206 270l176 -171l-71 -68l-206 198v82l206 198l71 -68z" />
    <glyph glyph-name="guilsinglright" unicode="&#x203a;" horiz-adv-x="490" 
d="M108 31zM284 270l-176 -171l71 -68l206 198v82l-206 198l-71 -68z" />
    <glyph glyph-name="fraction" unicode="&#x2044;" horiz-adv-x="395" 
d="M357 773h98l-417 -806h-98z" />
    <glyph glyph-name="Euro" unicode="&#x20ac;" horiz-adv-x="550" 
d="M509 40q-40 -31 -81 -44t-95 -13q-186 0 -222 231h-72l33 89h32q-1 10 -1 33t1 34h-66l33 89h41q36 229 229 229q83 0 150 -45l-41 -93q-22 15 -49 25.5t-53 10.5q-46 0 -75 -31t-42 -96h197l-33 -89h-173q-1 -11 -1 -34t1 -33h148l-33 -89h-106q13 -67 41.5 -98
t75.5 -31q34 0 61 11.5t61 36.5z" />
    <glyph glyph-name="uni20B9" unicode="&#x20b9;" horiz-adv-x="550" 
d="M391 570v-71h110v-84h-110v-40q0 -86 -49.5 -123t-155.5 -39v-18q0 -74 30 -102.5t102 -28.5h125v-84h-125q-114 0 -175 46t-61 169v157h104v-55q55 1 78 16.5t23 61.5v40h-237v84h237v71h-237v84h451v-84h-110z" />
    <glyph glyph-name="trademark" unicode="&#x2122;" horiz-adv-x="1140" 
d="M422 664h-140v-448h-101v448h-141v94h382v-94zM1040 758v-542h-101v380l-139 -191h-52l-139 191v-380h-101v542h88l178 -244l178 244h88z" />
    <glyph glyph-name="partialdiff" unicode="&#x2202;" horiz-adv-x="617" 
d="M491.5 566.5q78.5 -123.5 78.5 -272.5q0 -143 -69 -227t-199 -84q-78 0 -136.5 33t-91 93t-32.5 138q0 84 33 144t87 90.5t118 30.5q70 0 131 -39q-33 65 -90 121t-134 99l86 79q140 -82 218.5 -205.5zM450 346q-31 29 -68.5 45.5t-78.5 16.5q-59 0 -102 -40t-43 -121
q0 -75 41 -117.5t105 -42.5q70 0 109.5 52t40.5 149q0 33 -4 58z" />
    <glyph glyph-name="uni2206" unicode="&#x2206;" horiz-adv-x="754" 
d="M727 0h-699l280 767h138zM569 104l-192 528l-192 -528h384z" />
    <glyph glyph-name="product" unicode="&#x220f;" horiz-adv-x="797" 
d="M697 -237h-118v891h-361v-891h-118v995h597v-995z" />
    <glyph glyph-name="summation" unicode="&#x2211;" horiz-adv-x="704" 
d="M644 -133v-104h-564v102l284 395l-284 396v102h554v-104h-406l261 -364v-59l-261 -364h416z" />
    <glyph glyph-name="minus" unicode="&#x2212;" horiz-adv-x="550" 
d="M67 389h416v-104h-416v104z" />
    <glyph glyph-name="radical" unicode="&#x221a;" horiz-adv-x="700" 
d="M763 939l-331 -1112h-95l-176 423l-70 -51l-55 89l169 122l175 -420l275 949h108z" />
    <glyph glyph-name="infinity" unicode="&#x221e;" horiz-adv-x="550" 
d="M497.5 454.5q42.5 -45.5 42.5 -118.5t-42.5 -119t-111.5 -46q-40 0 -71.5 19t-50.5 52q-18 -26 -46 -41t-62 -15q-63 0 -104.5 42t-41.5 108t41.5 108t104.5 42q34 0 62 -15t47 -41q19 33 50.5 51.5t70.5 18.5q69 0 111.5 -45.5zM430.5 280.5q18.5 20.5 18.5 55.5
q0 34 -18.5 54.5t-49.5 20.5t-50 -20.5t-19 -54.5q0 -35 19 -55.5t50 -20.5t49.5 20.5zM204.5 291q16.5 16 16.5 45t-16.5 45t-43.5 16t-43.5 -16t-16.5 -45t16.5 -45t43.5 -16t43.5 16z" />
    <glyph glyph-name="integral" unicode="&#x222b;" horiz-adv-x="550" 
d="M442 850v-101q-22 6 -52 6q-34 0 -46 -14t-12 -52v-784q0 -84 -34 -120t-115 -36q-26 0 -75 9v101q24 -6 53 -6q33 0 45 18t12 69v783q0 71 35.5 103.5t114.5 32.5q35 0 74 -9z" />
    <glyph glyph-name="approxequal" unicode="&#x2248;" horiz-adv-x="550" 
d="M306 359q-22 9 -49 26q-21 13 -35 19.5t-30 6.5q-24 0 -44.5 -12.5t-52.5 -39.5l-50 69q39 40 72 61t71 21q28 0 49.5 -9t50.5 -26q19 -13 33.5 -19.5t29.5 -6.5q26 0 46.5 12t52.5 40l49 -69q-40 -41 -72 -61.5t-72 -20.5q-27 0 -49 9zM311 159q-22 9 -49 26
q-21 13 -35 19.5t-30 6.5q-24 0 -44.5 -12.5t-52.5 -39.5l-50 69q39 40 72 61t71 21q28 0 49.5 -9t50.5 -26q19 -13 33.5 -19.5t29.5 -6.5q26 0 46.5 12t52.5 40l49 -69q-40 -41 -72 -61.5t-72 -20.5q-27 0 -49 9z" />
    <glyph glyph-name="notequal" unicode="&#x2260;" horiz-adv-x="600" 
d="M352 385l-28 -96h159v-104h-188l-27 -95h-116l27 95h-112v104h141l28 96h-169v104h198l24 85h116l-24 -85h102v-104h-131z" />
    <glyph glyph-name="lessequal" unicode="&#x2264;" horiz-adv-x="550" 
d="M193 356l296 -141l-37 -88l-385 188v82l385 193l37 -88zM67 104h416v-104h-416v104z" />
    <glyph glyph-name="greaterequal" unicode="&#x2265;" horiz-adv-x="550" 
d="M61 0zM357 356l-296 -141l37 -88l385 188v82l-385 193l-37 -88zM483 104h-416v-104h416v104z" />
    <glyph glyph-name="lozenge" unicode="&#x25ca;" horiz-adv-x="550" 
d="M523 337l-199 -337h-92l-200 337l200 337h92zM403 337l-126 212l-124 -212l125 -212z" />
    <glyph glyph-name="uni25CC" unicode="&#x25cc;" horiz-adv-x="770" 
d="M357 546q-12 12 -12 29q0 16 12 28.5t29 12.5q16 0 28.5 -12.5t12.5 -28.5q0 -17 -12.5 -29t-28.5 -12q-17 0 -29 12zM230 514q-12 12 -12 29t12 29t28 12q17 0 29 -12t12 -29q0 -16 -12 -28.5t-29 -12.5q-16 0 -28 12zM481.5 514.5q-12.5 12.5 -12.5 28.5q0 17 12.5 29
t28.5 12q17 0 29 -12t12 -29t-12 -29t-29 -12q-16 0 -28.5 12.5zM136 421q-12 12 -12 29t12 29t29 12t29 -12t12 -29t-12 -29t-29 -12t-29 12zM576 421q-12 12 -12 29t12.5 29t28.5 12q17 0 29 -12t12 -29t-12 -29t-29 -12t-29 12zM105 294q-12 12 -12 29t12 29t29 12
t29 -12t12 -29q0 -16 -12 -28.5t-29 -12.5t-29 12zM608 294.5q-12 12.5 -12 28.5q0 17 12 29t28 12q17 0 29 -12t12 -29t-12 -29t-29 -12q-16 0 -28 12.5zM136 168q-12 12 -12 29t12 28.5t29 11.5t29 -12t12 -28t-12 -28.5t-29 -12.5t-29 12zM576.5 168.5
q-12.5 12.5 -12.5 28.5t12 28t29 12t29 -11.5t12 -28.5t-12 -29t-29 -12q-16 0 -28.5 12.5zM230 73q-12 12 -12 29t12 28.5t28 11.5q17 0 29 -12t12 -28t-12 -28.5t-29 -12.5q-16 0 -28 12zM481.5 73.5q-12.5 12.5 -12.5 28.5t12 28t29 12t29 -11.5t12 -28.5t-12 -29
t-29 -12q-16 0 -28.5 12.5zM357 42q-12 12 -12 29t12 29t29 12q16 0 28.5 -12t12.5 -29q0 -16 -12.5 -28.5t-28.5 -12.5q-17 0 -29 12z" />
    <glyph glyph-name="i.loclTRK" horiz-adv-x="284" 
d="M85 0zM85 556h114v-556h-114v556zM86 798h114v-131h-114v131z" />
    <glyph glyph-name="uni09080902" horiz-adv-x="527" 
d="M421 654h116v-84h-121v-166h-189q-33 0 -49 -10.5t-16 -37.5q0 -16 6.5 -30t16.5 -21h112q189 0 189 -148q0 -79 -48 -119t-138 -40h-11q-70 0 -132 25v-88h-94v239h94v-66q59 -26 125 -26h13q42 0 64.5 17t22.5 51q0 38 -21 54.5t-64 16.5h-167q-26 19 -49 58.5
t-23 83.5q0 68 41 96.5t128 28.5h85v82h-322v84h333q-40 91 -40 161q0 92 52 134.5t134 42.5q52 0 87 -11v-87q-30 14 -72 14q-47 0 -72 -24t-25 -79q0 -58 34 -151zM500 862l74 -74l-74 -73l-74 73z" />
    <glyph glyph-name="uni093F0902" 
d="M0 0zM621.5 919q67.5 -24 99.5 -78t33 -146v-87h-104v87q0 71 -24 106.5t-67 46.5t-116 11h-36q-73 0 -116 -11t-67 -46.5t-24 -106.5v-41h105v-84h-105v-570h-104v570h-107v84h107v41q0 92 32 146t100 78t179 24h36q111 0 178.5 -24zM787 763l74 74l74 -74l-74 -73z" />
    <glyph glyph-name="uni093F0930094D" 
d="M906 931v-87q-36 16 -72 16q-82 0 -82 -83v-160h-25v-9h-79v87q0 71 -24 106.5t-67 46.5t-116 11h-34q-73 0 -116 -11t-67 -46.5t-24 -106.5v-41h105v-84h-105v-570h-104v570h-107v84h107v41q0 92 32 146t100 78t179 24h34q93 0 152.5 -20t91.5 -64q30 85 142 85
q46 0 79 -13z" />
    <glyph glyph-name="uni093F0930094D0902" 
d="M844 905q-42 0 -67 -22.5t-25 -79.5v-186h-25v-9h-79v87q0 71 -24 106.5t-67 46.5t-116 11h-34q-73 0 -116 -11t-67 -46.5t-24 -106.5v-41h105v-84h-105v-570h-104v570h-107v84h107v41q0 92 32 146t100 78t179 24h34q86 0 143.5 -17t90.5 -55q28 118 167 118q50 0 79 -13
v-87q-32 16 -77 16zM929 773l-74 -73l-74 73l74 74z" />
    <glyph glyph-name="uni09400902" 
d="M0 0zM229 763l74 74l74 -74l-74 -73zM304 570h-105v-570h-104v570h-105v84h105v76q0 56 -9.5 83.5t-27.5 36.5t-49 9h-18q-31 0 -49 -9t-27.5 -36.5t-9.5 -83.5v-122h-104v127q0 77 19.5 122.5t61 65.5t109.5 20h18q68 0 109.5 -20t61 -65.5t19.5 -122.5v-81h105v-84z
" />
    <glyph glyph-name="uni09400930094D" 
d="M200 777v-123h104v-84h-105v-570h-104v570h-105v84h105v76q0 56 -9.5 83.5t-27.5 36.5t-49 9h-18q-31 0 -49 -9t-27.5 -36.5t-9.5 -83.5v-122h-104v127q0 77 19.5 122.5t61 65.5t109.5 20h18q50 0 83 -14t52 -45q37 60 131 60q46 0 79 -13v-87q-36 16 -72 16
q-82 0 -82 -83z" />
    <glyph glyph-name="uni09400930094D0902" 
d="M199 654h105v-84h-105v-570h-104v570h-105v84h105v76q0 56 -9.5 83.5t-27.5 36.5t-49 9h-18q-31 0 -49 -9t-27.5 -36.5t-9.5 -83.5v-122h-104v127q0 77 19.5 122.5t61 65.5t109.5 20h18q86 0 122 -42q38 88 158 88q50 0 79 -13v-87q-32 16 -77 16q-42 0 -67 -22.5
t-25 -79.5v-149zM303 847l74 -74l-74 -73l-74 73z" />
    <glyph glyph-name="uni094B0902" 
d="M198 654h106v-84h-105v-570h-104v570h-105v84h104l-28 124q-11 48 -32.5 64.5t-66.5 16.5h-85v84h85q63 0 100 -12t62 -47t41 -106zM272 721l-74 73l74 74l74 -74z" />
    <glyph glyph-name="uni094B0930094D" 
d="M170 800q0 -32 7.5 -67t20.5 -79h106v-84h-105v-570h-104v570h-105v84h104l-28 124q-11 48 -32.5 64.5t-66.5 16.5h-85v84h85q54 0 86 -11t54 -42q23 40 62.5 56t82.5 16q47 0 72 -11v-87q-28 14 -62 14q-88 0 -92 -78z" />
    <glyph glyph-name="uni094B0930094D0902" 
d="M198 654h106v-84h-105v-570h-104v570h-105v84h104l-28 124q-11 48 -32.5 64.5t-66.5 16.5h-85v84h85q51 0 82.5 -9.5t53.5 -37.5q22 51 69 73.5t105 22.5q50 0 77 -11v-87q-28 14 -72 14q-108 0 -112 -103q0 -60 28 -151zM298 862l74 -74l-74 -73l-74 73z" />
    <glyph glyph-name="uni094C0902" 
d="M198 654h106v-84h-105v-570h-104v570h-105v84h98l-52 65q-31 38 -65 52t-102 14h-95v84h95q59 0 95 -8t62 -26t54 -52l-20 87q-9 41 -34 55.5t-77 14.5h-85v84h85q62 0 99.5 -11.5t61.5 -44.5t39 -98zM270 721l-74 73l74 74l74 -74z" />
    <glyph glyph-name="uni094C0930094D" 
d="M170 800q0 -32 7.5 -67t20.5 -79h106v-84h-105v-570h-104v570h-105v84h88l-52 65q-31 39 -62 52.5t-95 13.5h-95v84h95q57 0 93 -9t62.5 -29t57.5 -58l-20 90q-11 46 -36 61.5t-77 15.5h-85v84h85q51 0 83.5 -8.5t55.5 -31.5t38 -68q24 25 58 35.5t68 10.5q47 0 72 -11
v-87q-28 14 -62 14q-88 0 -92 -78z" />
    <glyph glyph-name="uni094C0930094D0902" 
d="M177.5 736.5q7.5 -36.5 20.5 -82.5h106v-84h-105v-570h-104v570h-105v84h88l-52 65q-31 39 -62 52.5t-95 13.5h-95v84h95q57 0 93 -9t62.5 -29t57.5 -58l-20 90q-11 46 -36 61.5t-77 15.5h-85v84h85q73 0 111.5 -19t61.5 -77q26 34 66.5 49t88.5 15q50 0 77 -11v-87
q-28 14 -72 14q-108 0 -112 -103q0 -32 7.5 -68.5zM298 862l74 -74l-74 -73l-74 73z" />
    <glyph glyph-name="uni093F.0" 
d="M568 919q56 -24 81.5 -78t24.5 -146v-92h-104v92q0 73 -16.5 108t-47.5 45.5t-88 10.5h-66q-54 0 -85.5 -11t-49.5 -46.5t-18 -106.5v-41h105v-84h-105v-570h-104v570h-106v84h106v41q0 92 26.5 146t82.5 78t148 24h66q94 0 150 -24z" />
    <glyph glyph-name="uni093F0902.0" 
d="M0 0zM709 763l74 74l74 -74l-74 -73zM568 919q56 -24 81.5 -78t24.5 -146v-92h-104v92q0 73 -16.5 108t-47.5 45.5t-88 10.5h-66q-54 0 -85.5 -11t-49.5 -46.5t-18 -106.5v-41h105v-84h-105v-570h-104v570h-106v84h106v41q0 92 26.5 146t82.5 78t148 24h66q94 0 150 -24z
" />
    <glyph glyph-name="uni093F0930094D.0" 
d="M843 976v-87q-32 16 -77 16q-42 0 -67 -22.5t-25 -79.5v-186h-25v-14h-79v92q0 73 -16.5 108t-47.5 45.5t-88 10.5h-66q-54 0 -85.5 -11t-49.5 -46.5t-18 -106.5v-41h105v-84h-105v-570h-104v570h-106v84h106v41q0 92 26.5 146t82.5 78t148 24h66q66 0 111 -14t71 -45
q32 105 164 105q50 0 79 -13z" />
    <glyph glyph-name="uni093F0930094D0902.0" 
d="M766 905q-42 0 -67 -22.5t-25 -79.5v-186h-25v-14h-79v92q0 73 -16.5 108t-47.5 45.5t-88 10.5h-66q-54 0 -85.5 -11t-49.5 -46.5t-18 -106.5v-41h105v-84h-105v-570h-104v570h-106v84h106v41q0 92 26.5 146t82.5 78t148 24h66q66 0 111 -14t71 -45q32 105 164 105
q50 0 79 -13v-87q-32 16 -77 16zM851 773l-74 -73l-74 73l74 74z" />
    <glyph glyph-name="uni093F.015" 
d="M596 919q62 -24 91.5 -78t30.5 -146v-87h-104v87q0 71 -21 106.5t-58.5 46.5t-101.5 11h-37q-69 0 -110 -11t-63.5 -46.5t-22.5 -106.5v-41h105v-84h-105v-570h-104v570h-107v84h107v41q0 92 31 146t96 78t173 24h37q101 0 163 -24z" />
    <glyph glyph-name="uni093F0902.015" horiz-adv-x="600" 
 />
    <glyph glyph-name="uni093F0930094D.015" 
d="M887 976v-87q-32 16 -77 16q-42 0 -67 -22.5t-25 -79.5v-186h-25v-9h-79v87q0 71 -21 106.5t-58.5 46.5t-101.5 11h-37q-69 0 -110 -11t-63.5 -46.5t-22.5 -106.5v-41h105v-84h-105v-570h-104v570h-107v84h107v41q0 92 31 146t96 78t173 24h37q76 0 127.5 -16.5
t81.5 -51.5q29 114 166 114q50 0 79 -13z" />
    <glyph glyph-name="uni093F0930094D0902.015" 
d="M810 905q-42 0 -67 -22.5t-25 -79.5v-186h-25v-9h-79v87q0 71 -21 106.5t-58.5 46.5t-101.5 11h-37q-69 0 -110 -11t-63.5 -46.5t-22.5 -106.5v-41h105v-84h-105v-570h-104v570h-107v84h107v41q0 92 31 146t96 78t173 24h37q76 0 127.5 -16.5t81.5 -51.5q29 114 166 114
q50 0 79 -13v-87q-32 16 -77 16zM895 774l-74 -73l-74 73l74 74z" />
    <glyph glyph-name="uni093F.045" 
d="M674 919q70 -24 103 -78.5t33 -145.5v-87h-104v87q0 71 -25 106.5t-70 46.5t-121 11h-52q-84 0 -133.5 -11t-77 -46.5t-27.5 -106.5v-41h105v-84h-105v-570h-104v570h-107v84h107v41q0 92 35 146t109.5 78t197.5 24h52q114 0 184 -24z" />
    <glyph glyph-name="uni093F0902.045" horiz-adv-x="600" 
 />
    <glyph glyph-name="uni093F0930094D.045" 
d="M979 976v-87q-32 16 -77 16q-42 0 -67 -22.5t-25 -79.5v-186h-25v-9h-79v87q0 71 -25 106.5t-70 46.5t-121 11h-52q-84 0 -133.5 -11t-77 -46.5t-27.5 -106.5v-41h105v-84h-105v-570h-104v570h-107v84h107v41q0 92 35 146t109.5 78t197.5 24h52q90 0 149 -17.5t94 -55.5
q27 119 167 119q50 0 79 -13z" />
    <glyph glyph-name="uni093F0930094D0902.045" 
d="M902 905q-42 0 -67 -22.5t-25 -79.5v-186h-25v-9h-79v87q0 71 -25 106.5t-70 46.5t-121 11h-52q-84 0 -133.5 -11t-77 -46.5t-27.5 -106.5v-41h105v-84h-105v-570h-104v570h-107v84h107v41q0 92 35 146t109.5 78t197.5 24h52q90 0 149 -17.5t94 -55.5q27 119 167 119
q50 0 79 -13v-87q-32 16 -77 16zM988 773l-74 -73l-74 73l74 74z" />
    <glyph glyph-name="uni093F.055" 
d="M749 919q70 -24 103.5 -78t34.5 -146v-92h-104v92q0 71 -25.5 106.5t-71 46.5t-122.5 11h-131q-82 0 -130.5 -11t-76 -46.5t-27.5 -106.5v-41h105v-84h-105v-570h-104v570h-106v84h106v41q0 92 35 146t108.5 78t194.5 24h131q115 0 185 -24z" />
    <glyph glyph-name="uni093F0902.055" horiz-adv-x="600" 
 />
    <glyph glyph-name="uni093F0930094D.055" 
d="M1056 976v-87q-34 16 -77 16q-42 0 -67 -22.5t-25 -79.5v-186h-25v-14h-79v92q0 71 -25.5 106.5t-71 46.5t-122.5 11h-131q-82 0 -130.5 -11t-76 -46.5t-27.5 -106.5v-41h105v-84h-105v-570h-104v570h-106v84h106v41q0 92 35 146t108.5 78t194.5 24h131q91 0 150.5 -17.5
t94.5 -56.5q27 120 167 120q51 0 80 -13z" />
    <glyph glyph-name="uni093F0930094D0902.055" 
d="M979 905q-42 0 -67 -22.5t-25 -79.5v-186h-25v-14h-79v92q0 71 -25.5 106.5t-71 46.5t-122.5 11h-131q-82 0 -130.5 -11t-76 -46.5t-27.5 -106.5v-41h105v-84h-105v-570h-104v570h-106v84h106v41q0 92 35 146t108.5 78t194.5 24h131q91 0 150.5 -17.5t94.5 -56.5
q27 120 167 120q51 0 80 -13v-87q-34 16 -77 16zM1065 773l-74 -73l-74 73l74 74z" />
    <glyph glyph-name="uni093F.057" 
d="M742.5 919q70.5 -24 103.5 -78t34 -146v-92h-104v92q0 71 -25.5 106.5t-71 46.5t-122.5 11h-124q-82 0 -130.5 -11t-76 -46.5t-27.5 -106.5v-41h105v-84h-105v-570h-104v570h-106v84h106v41q0 92 35 146t108.5 78t194.5 24h124q115 0 185.5 -24z" />
    <glyph glyph-name="uni093F0902.057" horiz-adv-x="600" 
 />
    <glyph glyph-name="uni093F0930094D.057" 
d="M1049 976v-87q-32 16 -77 16q-42 0 -67 -22.5t-25 -79.5v-186h-25v-14h-79v92q0 71 -25.5 106.5t-71 46.5t-122.5 11h-124q-82 0 -130.5 -11t-76 -46.5t-27.5 -106.5v-41h105v-84h-105v-570h-104v570h-106v84h106v41q0 92 35 146t108.5 78t194.5 24h124q91 0 151 -17.5
t95 -56.5q27 120 167 120q50 0 79 -13z" />
    <glyph glyph-name="uni093F0930094D0902.057" 
d="M972 905q-42 0 -67 -22.5t-25 -79.5v-186h-25v-14h-79v92q0 71 -25.5 106.5t-71 46.5t-122.5 11h-124q-82 0 -130.5 -11t-76 -46.5t-27.5 -106.5v-41h105v-84h-105v-570h-104v570h-106v84h106v41q0 92 35 146t108.5 78t194.5 24h124q91 0 151 -17.5t95 -56.5
q27 120 167 120q50 0 79 -13v-87q-32 16 -77 16zM1059 773l-74 -73l-74 73l74 74z" />
    <glyph glyph-name="uni093F.059" 
d="M853.5 919q70.5 -24 103.5 -78t34 -146v-92h-104v92q0 71 -25.5 106.5t-71 46.5t-122.5 11h-235q-82 0 -130.5 -11t-76 -46.5t-27.5 -106.5v-41h105v-84h-105v-570h-104v570h-106v84h106v41q0 92 35 146t108.5 78t194.5 24h235q115 0 185.5 -24z" />
    <glyph glyph-name="uni093F0902.059" horiz-adv-x="600" 
 />
    <glyph glyph-name="uni093F0930094D.059" 
d="M1160 976v-87q-32 16 -77 16q-42 0 -67 -22.5t-25 -79.5v-186h-25v-14h-79v92q0 71 -25.5 106.5t-71 46.5t-122.5 11h-235q-82 0 -130.5 -11t-76 -46.5t-27.5 -106.5v-41h105v-84h-105v-570h-104v570h-106v84h106v41q0 92 35 146t108.5 78t194.5 24h235q91 0 151 -17.5
t95 -56.5q27 120 167 120q50 0 79 -13z" />
    <glyph glyph-name="uni093F0930094D0902.059" 
d="M1083 905q-42 0 -67 -22.5t-25 -79.5v-186h-25v-14h-79v92q0 71 -25.5 106.5t-71 46.5t-122.5 11h-235q-82 0 -130.5 -11t-76 -46.5t-27.5 -106.5v-41h105v-84h-105v-570h-104v570h-106v84h106v41q0 92 35 146t108.5 78t194.5 24h235q91 0 151 -17.5t95 -56.5
q27 120 167 120q50 0 79 -13v-87q-32 16 -77 16zM1170 773l-74 -73l-74 73l74 74z" />
    <glyph glyph-name="uni093F.073" 
d="M837.5 919q71.5 -24 105.5 -78t35 -146v-92h-104v92q0 71 -26.5 106.5t-73 46.5t-125.5 11h-210q-84 0 -134 -11t-78 -46.5t-28 -106.5v-41h105v-84h-105v-570h-104v570h-106v84h106v41q0 92 35.5 146t110.5 78t198 24h210q117 0 188.5 -24z" />
    <glyph glyph-name="uni093F0902.073" horiz-adv-x="600" 
 />
    <glyph glyph-name="uni093F0930094D.073" 
d="M1147 976v-87q-34 16 -77 16q-42 0 -67 -22.5t-25 -79.5v-186h-25v-14h-79v92q0 71 -26.5 106.5t-73 46.5t-125.5 11h-210q-84 0 -134 -11t-78 -46.5t-28 -106.5v-41h105v-84h-105v-570h-104v570h-106v84h106v41q0 92 35.5 146t110.5 78t198 24h210q93 0 154.5 -17.5
t96.5 -56.5q27 120 167 120q51 0 80 -13z" />
    <glyph glyph-name="uni093F0930094D0902.073" 
d="M1070 905q-42 0 -67 -22.5t-25 -79.5v-186h-25v-14h-79v92q0 71 -26.5 106.5t-73 46.5t-125.5 11h-210q-84 0 -134 -11t-78 -46.5t-28 -106.5v-41h105v-84h-105v-570h-104v570h-106v84h106v41q0 92 35.5 146t110.5 78t198 24h210q93 0 154.5 -17.5t96.5 -56.5
q27 120 167 120q51 0 80 -13v-87q-34 16 -77 16zM1156 773l-74 -73l-74 73l74 74z" />
    <glyph glyph-name="uni093F.075" 
d="M929.5 919q71.5 -24 105.5 -78t35 -146v-92h-104v92q0 71 -26.5 106.5t-73 46.5t-125.5 11h-302q-84 0 -134 -11t-78 -46.5t-28 -106.5v-41h105v-84h-105v-570h-104v570h-106v84h106v41q0 92 35.5 146t110.5 78t198 24h302q117 0 188.5 -24z" />
    <glyph glyph-name="uni093F0902.075" horiz-adv-x="600" 
 />
    <glyph glyph-name="uni093F0930094D.075" 
d="M1239 976v-87q-34 16 -77 16q-42 0 -67 -22.5t-25 -79.5v-186h-25v-14h-79v92q0 71 -26.5 106.5t-73 46.5t-125.5 11h-302q-84 0 -134 -11t-78 -46.5t-28 -106.5v-41h105v-84h-105v-570h-104v570h-106v84h106v41q0 92 35.5 146t110.5 78t198 24h302q93 0 154.5 -17.5
t96.5 -56.5q27 120 167 120q51 0 80 -13z" />
    <glyph glyph-name="uni093F0930094D0902.075" 
d="M1162 905q-42 0 -67 -22.5t-25 -79.5v-186h-25v-14h-79v92q0 71 -26.5 106.5t-73 46.5t-125.5 11h-302q-84 0 -134 -11t-78 -46.5t-28 -106.5v-41h105v-84h-105v-570h-104v570h-106v84h106v41q0 92 35.5 146t110.5 78t198 24h302q93 0 154.5 -17.5t96.5 -56.5
q27 120 167 120q51 0 80 -13v-87q-34 16 -77 16zM1248 773l-74 -73l-74 73l74 74z" />
    <glyph glyph-name="uni093F.101" 
d="M980 919q71 -24 104.5 -78t34.5 -146v-92h-104v92q0 71 -26 106.5t-72 46.5t-125 11h-353q-84 0 -134 -11t-78 -46.5t-28 -106.5v-41h105v-84h-105v-570h-104v570h-106v84h106v41q0 92 35.5 146t110.5 78t198 24h353q117 0 188 -24z" />
    <glyph glyph-name="uni093F0902.101" horiz-adv-x="600" 
 />
    <glyph glyph-name="uni093F0930094D.101" 
d="M1288 976v-87q-32 16 -77 16q-42 0 -67 -22.5t-25 -79.5v-186h-25v-14h-79v92q0 71 -26 106.5t-72.5 46.5t-125.5 11h-352q-84 0 -134 -11t-78 -46.5t-28 -106.5v-41h105v-84h-105v-570h-104v570h-106v84h106v41q0 92 35.5 146t110.5 78t198 24h352q93 0 154 -17.5
t96 -56.5q28 120 168 120q50 0 79 -13z" />
    <glyph glyph-name="uni093F0930094D0902.101" 
d="M1213 905q-42 0 -67 -22.5t-25 -79.5v-186h-25v-14h-79v92q0 71 -26.5 106.5t-73 46.5t-125.5 11h-353q-84 0 -134 -11t-78 -46.5t-28 -106.5v-41h105v-84h-105v-570h-104v570h-106v84h106v41q0 92 35.5 146t110.5 78t198 24h353q93 0 154.5 -17.5t96.5 -56.5
q27 120 167 120q51 0 80 -13v-87q-34 16 -77 16zM1298 773l-74 -73l-74 73l74 74z" />
    <glyph glyph-name="uni093F.102" 
d="M1005.5 919q71.5 -24 105.5 -78t35 -146v-92h-104v92q0 71 -26.5 106.5t-73 46.5t-125.5 11h-378q-84 0 -134 -11t-78 -46.5t-28 -106.5v-41h105v-84h-105v-570h-104v570h-106v84h106v41q0 92 35.5 146t110.5 78t198 24h378q117 0 188.5 -24z" />
    <glyph glyph-name="uni093F0902.102" horiz-adv-x="600" 
 />
    <glyph glyph-name="uni093F0930094D.102" 
d="M1315 976v-87q-34 16 -77 16q-42 0 -67 -22.5t-25 -79.5v-186h-25v-14h-79v92q0 71 -26.5 106.5t-73 46.5t-125.5 11h-378q-84 0 -134 -11t-78 -46.5t-28 -106.5v-41h105v-84h-105v-570h-104v570h-106v84h106v41q0 92 35.5 146t110.5 78t198 24h378q93 0 154.5 -17.5
t96.5 -56.5q27 120 167 120q51 0 80 -13z" />
    <glyph glyph-name="uni093F0930094D0902.102" 
d="M1238 905q-42 0 -67 -22.5t-25 -79.5v-186h-25v-14h-79v92q0 71 -26.5 106.5t-73 46.5t-125.5 11h-378q-84 0 -134 -11t-78 -46.5t-28 -106.5v-41h105v-84h-105v-570h-104v570h-106v84h106v41q0 92 35.5 146t110.5 78t198 24h378q93 0 154.5 -17.5t96.5 -56.5
q27 120 167 120q51 0 80 -13v-87q-34 16 -77 16zM1324 773l-74 -73l-74 73l74 74z" />
    <glyph glyph-name="uni093F.103" 
d="M1055.5 919q71.5 -24 105.5 -78t35 -146v-92h-104v92q0 71 -26.5 106.5t-73 46.5t-125.5 11h-428q-84 0 -134 -11t-78 -46.5t-28 -106.5v-41h105v-84h-105v-570h-104v570h-106v84h106v41q0 92 35.5 146t110.5 78t198 24h428q117 0 188.5 -24z" />
    <glyph glyph-name="uni093F0902.103" horiz-adv-x="600" 
 />
    <glyph glyph-name="uni093F0930094D.103" 
d="M1365 976v-87q-34 16 -77 16q-42 0 -67 -22.5t-25 -79.5v-186h-25v-14h-79v92q0 71 -26.5 106.5t-73 46.5t-125.5 11h-428q-84 0 -134 -11t-78 -46.5t-28 -106.5v-41h105v-84h-105v-570h-104v570h-106v84h106v41q0 92 35.5 146t110.5 78t198 24h428q93 0 154.5 -17.5
t96.5 -56.5q27 120 167 120q51 0 80 -13z" />
    <glyph glyph-name="uni093F0930094D0902.103" 
d="M1288 905q-42 0 -67 -22.5t-25 -79.5v-186h-25v-14h-79v92q0 71 -26.5 106.5t-73 46.5t-125.5 11h-428q-84 0 -134 -11t-78 -46.5t-28 -106.5v-41h105v-84h-105v-570h-104v570h-106v84h106v41q0 92 35.5 146t110.5 78t198 24h428q93 0 154.5 -17.5t96.5 -56.5
q27 120 167 120q51 0 80 -13v-87q-34 16 -77 16zM1374 773l-74 -73l-74 73l74 74z" />
    <glyph glyph-name="uni093F.104" 
d="M1144.5 919q71.5 -24 105 -78t34.5 -146v-92h-104v92q0 71 -26 106.5t-72.5 46.5t-125.5 11h-517q-84 0 -134 -11t-78 -46.5t-28 -106.5v-41h105v-84h-105v-570h-104v570h-106v84h106v41q0 92 35.5 146t110.5 78t198 24h517q117 0 188.5 -24z" />
    <glyph glyph-name="uni093F0902.104" horiz-adv-x="600" 
 />
    <glyph glyph-name="uni093F0930094D.104" 
d="M1453 976v-87q-32 16 -77 16q-42 0 -67 -22.5t-25 -79.5v-186h-25v-14h-79v92q0 71 -26 106.5t-72.5 46.5t-125.5 11h-517q-84 0 -134 -11t-78 -46.5t-28 -106.5v-41h105v-84h-105v-570h-104v570h-106v84h106v41q0 92 35.5 146t110.5 78t198 24h517q93 0 154 -17.5
t96 -56.5q28 120 168 120q50 0 79 -13z" />
    <glyph glyph-name="uni093F0930094D0902.104" 
d="M1376 905q-42 0 -67 -22.5t-25 -79.5v-186h-25v-14h-79v92q0 71 -26 106.5t-72.5 46.5t-125.5 11h-517q-84 0 -134 -11t-78 -46.5t-28 -106.5v-41h105v-84h-105v-570h-104v570h-106v84h106v41q0 92 35.5 146t110.5 78t198 24h517q93 0 154 -17.5t96 -56.5q28 120 168 120
q50 0 79 -13v-87q-32 16 -77 16zM1463 773l-74 -73l-74 73l74 74z" />
    <glyph glyph-name="uni093F.105" 
d="M1145.5 919q71.5 -24 105.5 -78t35 -146v-92h-104v92q0 71 -26.5 106.5t-73 46.5t-125.5 11h-518q-84 0 -134 -11t-78 -46.5t-28 -106.5v-41h105v-84h-105v-570h-104v570h-106v84h106v41q0 92 35.5 146t110.5 78t198 24h518q117 0 188.5 -24z" />
    <glyph glyph-name="uni093F0902.105" horiz-adv-x="600" 
 />
    <glyph glyph-name="uni093F0930094D.105" 
d="M1455 976v-87q-34 16 -77 16q-42 0 -67 -22.5t-25 -79.5v-186h-25v-14h-79v92q0 71 -26.5 106.5t-73 46.5t-125.5 11h-518q-84 0 -134 -11t-78 -46.5t-28 -106.5v-41h105v-84h-105v-570h-104v570h-106v84h106v41q0 92 35.5 146t110.5 78t198 24h518q93 0 154.5 -17.5
t96.5 -56.5q27 120 167 120q51 0 80 -13z" />
    <glyph glyph-name="uni093F0930094D0902.105" 
d="M1378 905q-42 0 -67 -22.5t-25 -79.5v-186h-25v-14h-79v92q0 71 -26.5 106.5t-73 46.5t-125.5 11h-518q-84 0 -134 -11t-78 -46.5t-28 -106.5v-41h105v-84h-105v-570h-104v570h-106v84h106v41q0 92 35.5 146t110.5 78t198 24h518q93 0 154.5 -17.5t96.5 -56.5
q27 120 167 120q51 0 80 -13v-87q-34 16 -77 16zM1469 773l-74 -73l-74 73l74 74z" />
    <glyph glyph-name="uni093F.106" 
d="M1208.5 919q71.5 -24 105 -78t34.5 -146v-92h-104v92q0 71 -26 106.5t-72.5 46.5t-125.5 11h-581q-84 0 -134 -11t-78 -46.5t-28 -106.5v-41h105v-84h-105v-570h-104v570h-106v84h106v41q0 92 35.5 146t110.5 78t198 24h581q117 0 188.5 -24z" />
    <glyph glyph-name="uni093F0902.106" horiz-adv-x="600" 
 />
    <glyph glyph-name="uni093F0930094D.106" 
d="M1517 976v-87q-32 16 -77 16q-42 0 -67 -22.5t-25 -79.5v-186h-25v-14h-79v92q0 71 -26 106.5t-72.5 46.5t-125.5 11h-581q-84 0 -134 -11t-78 -46.5t-28 -106.5v-41h105v-84h-105v-570h-104v570h-106v84h106v41q0 92 35.5 146t110.5 78t198 24h581q93 0 154 -17.5
t96 -56.5q28 120 168 120q50 0 79 -13z" />
    <glyph glyph-name="uni093F0930094D0902.106" 
d="M1440 905q-42 0 -67 -22.5t-25 -79.5v-186h-25v-14h-79v92q0 71 -26 106.5t-72.5 46.5t-125.5 11h-581q-84 0 -134 -11t-78 -46.5t-28 -106.5v-41h105v-84h-105v-570h-104v570h-106v84h106v41q0 92 35.5 146t110.5 78t198 24h581q93 0 154 -17.5t96 -56.5q28 120 168 120
q50 0 79 -13v-87q-32 16 -77 16zM1532 773l-74 -73l-74 73l74 74z" />
    <glyph glyph-name="uni093F.107" 
d="M1270.5 919q71.5 -24 105.5 -78t35 -146v-92h-104v92q0 71 -26.5 106.5t-73 46.5t-125.5 11h-643q-84 0 -134 -11t-78 -46.5t-28 -106.5v-41h105v-84h-105v-570h-104v570h-106v84h106v41q0 92 35.5 146t110.5 78t198 24h643q117 0 188.5 -24z" />
    <glyph glyph-name="uni093F0902.107" horiz-adv-x="600" 
 />
    <glyph glyph-name="uni093F0930094D.107" 
d="M1580 976v-87q-34 16 -77 16q-42 0 -67 -22.5t-25 -79.5v-186h-25v-14h-79v92q0 71 -26.5 106.5t-73 46.5t-125.5 11h-643q-84 0 -134 -11t-78 -46.5t-28 -106.5v-41h105v-84h-105v-570h-104v570h-106v84h106v41q0 92 35.5 146t110.5 78t198 24h643q93 0 154.5 -17.5
t96.5 -56.5q27 120 167 120q51 0 80 -13z" />
    <glyph glyph-name="uni093F0930094D0902.107" 
d="M1503 905q-42 0 -67 -22.5t-25 -79.5v-186h-25v-14h-79v92q0 71 -26.5 106.5t-73 46.5t-125.5 11h-643q-84 0 -134 -11t-78 -46.5t-28 -106.5v-41h105v-84h-105v-570h-104v570h-106v84h106v41q0 92 35.5 146t110.5 78t198 24h643q93 0 154.5 -17.5t96.5 -56.5
q27 120 167 120q51 0 80 -13v-87q-34 16 -77 16zM1594 773l-74 -73l-74 73l74 74z" />
    <glyph glyph-name="uni093F.108" 
d="M1333.5 919q71.5 -24 105 -78t34.5 -146v-92h-104v92q0 71 -26 106.5t-72.5 46.5t-125.5 11h-706q-84 0 -134 -11t-78 -46.5t-28 -106.5v-41h105v-84h-105v-570h-104v570h-106v84h106v41q0 92 35.5 146t110.5 78t198 24h706q117 0 188.5 -24z" />
    <glyph glyph-name="uni093F0902.108" horiz-adv-x="600" 
 />
    <glyph glyph-name="uni093F0930094D.108" 
d="M1642 976v-87q-32 16 -77 16q-42 0 -67 -22.5t-25 -79.5v-186h-25v-14h-79v92q0 71 -26 106.5t-72.5 46.5t-125.5 11h-706q-84 0 -134 -11t-78 -46.5t-28 -106.5v-41h105v-84h-105v-570h-104v570h-106v84h106v41q0 92 35.5 146t110.5 78t198 24h706q93 0 154 -17.5
t96 -56.5q28 120 168 120q50 0 79 -13z" />
    <glyph glyph-name="uni093F0930094D0902.108" 
d="M1565 905q-42 0 -67 -22.5t-25 -79.5v-186h-25v-14h-79v92q0 71 -26 106.5t-72.5 46.5t-125.5 11h-706q-84 0 -134 -11t-78 -46.5t-28 -106.5v-41h105v-84h-105v-570h-104v570h-106v84h106v41q0 92 35.5 146t110.5 78t198 24h706q93 0 154 -17.5t96 -56.5q28 120 168 120
q50 0 79 -13v-87q-32 16 -77 16zM1652 773l-74 -73l-74 73l74 74z" />
    <glyph glyph-name="uni093F.109" 
d="M1399.5 919q71.5 -24 105 -78t34.5 -146v-92h-104v92q0 71 -26 106.5t-72.5 46.5t-125.5 11h-772q-84 0 -134 -11t-78 -46.5t-28 -106.5v-41h105v-84h-105v-570h-104v570h-106v84h106v41q0 92 35.5 146t110.5 78t198 24h772q117 0 188.5 -24z" />
    <glyph glyph-name="uni093F0902.109" horiz-adv-x="600" 
 />
    <glyph glyph-name="uni093F0930094D.109" 
d="M1708 976v-87q-32 16 -77 16q-42 0 -67 -22.5t-25 -79.5v-186h-25v-14h-79v92q0 71 -26 106.5t-72.5 46.5t-125.5 11h-772q-84 0 -134 -11t-78 -46.5t-28 -106.5v-41h105v-84h-105v-570h-104v570h-106v84h106v41q0 92 35.5 146t110.5 78t198 24h772q93 0 154 -17.5
t96 -56.5q28 120 168 120q50 0 79 -13z" />
    <glyph glyph-name="uni093F0930094D0902.109" 
d="M1631 905q-42 0 -67 -22.5t-25 -79.5v-186h-25v-14h-79v92q0 71 -26 106.5t-72.5 46.5t-125.5 11h-772q-84 0 -134 -11t-78 -46.5t-28 -106.5v-41h105v-84h-105v-570h-104v570h-106v84h106v41q0 92 35.5 146t110.5 78t198 24h772q93 0 154 -17.5t96 -56.5q28 120 168 120
q50 0 79 -13v-87q-32 16 -77 16zM1718 773l-74 -73l-74 73l74 74z" />
    <glyph glyph-name="uni093F.110" 
d="M1395.5 919q71.5 -24 105.5 -78t35 -146v-92h-104v92q0 71 -26.5 106.5t-73 46.5t-125.5 11h-768q-84 0 -134 -11t-78 -46.5t-28 -106.5v-41h105v-84h-105v-570h-104v570h-106v84h106v41q0 92 35.5 146t110.5 78t198 24h768q117 0 188.5 -24z" />
    <glyph glyph-name="uni093F0902.110" horiz-adv-x="600" 
 />
    <glyph glyph-name="uni093F0930094D.110" 
d="M1705 976v-87q-34 16 -77 16q-42 0 -67 -22.5t-25 -79.5v-186h-25v-14h-79v92q0 71 -26.5 106.5t-73 46.5t-125.5 11h-768q-84 0 -134 -11t-78 -46.5t-28 -106.5v-41h105v-84h-105v-570h-104v570h-106v84h106v41q0 92 35.5 146t110.5 78t198 24h768q93 0 154.5 -17.5
t96.5 -56.5q27 120 167 120q51 0 80 -13z" />
    <glyph glyph-name="uni093F0930094D0902.110" 
d="M1628 905q-42 0 -67 -22.5t-25 -79.5v-186h-25v-14h-79v92q0 71 -26.5 106.5t-73 46.5t-125.5 11h-768q-84 0 -134 -11t-78 -46.5t-28 -106.5v-41h105v-84h-105v-570h-104v570h-106v84h106v41q0 92 35.5 146t110.5 78t198 24h768q93 0 154.5 -17.5t96.5 -56.5
q27 120 167 120q51 0 80 -13v-87q-34 16 -77 16zM1714 773l-74 -73l-74 73l74 74z" />
    <glyph glyph-name="uni093F.111" 
d="M1445.5 919q71.5 -24 105.5 -78t35 -146v-92h-104v92q0 71 -26.5 106.5t-73 46.5t-125.5 11h-818q-84 0 -134 -11t-78 -46.5t-28 -106.5v-41h105v-84h-105v-570h-104v570h-106v84h106v41q0 92 35.5 146t110.5 78t198 24h818q117 0 188.5 -24z" />
    <glyph glyph-name="uni093F0902.111" horiz-adv-x="600" 
 />
    <glyph glyph-name="uni093F0930094D.111" 
d="M1755 976v-87q-34 16 -77 16q-42 0 -67 -22.5t-25 -79.5v-186h-25v-14h-79v92q0 71 -26.5 106.5t-73 46.5t-125.5 11h-818q-84 0 -134 -11t-78 -46.5t-28 -106.5v-41h105v-84h-105v-570h-104v570h-106v84h106v41q0 92 35.5 146t110.5 78t198 24h818q93 0 154.5 -17.5
t96.5 -56.5q27 120 167 120q51 0 80 -13z" />
    <glyph glyph-name="uni093F0930094D0902.111" 
d="M1678 905q-42 0 -67 -22.5t-25 -79.5v-186h-25v-14h-79v92q0 71 -26.5 106.5t-73 46.5t-125.5 11h-818q-84 0 -134 -11t-78 -46.5t-28 -106.5v-41h105v-84h-105v-570h-104v570h-106v84h106v41q0 92 35.5 146t110.5 78t198 24h818q93 0 154.5 -17.5t96.5 -56.5
q27 120 167 120q51 0 80 -13v-87q-34 16 -77 16zM1764 773l-74 -73l-74 73l74 74z" />
    <glyph glyph-name="uni093F.112" 
d="M1495.5 919q71.5 -24 105.5 -78t35 -146v-92h-104v92q0 71 -26.5 106.5t-73 46.5t-125.5 11h-868q-84 0 -134 -11t-78 -46.5t-28 -106.5v-41h105v-84h-105v-570h-104v570h-106v84h106v41q0 92 35.5 146t110.5 78t198 24h868q117 0 188.5 -24z" />
    <glyph glyph-name="uni093F0902.112" horiz-adv-x="600" 
 />
    <glyph glyph-name="uni093F0930094D.112" 
d="M1805 976v-87q-34 16 -77 16q-42 0 -67 -22.5t-25 -79.5v-186h-25v-14h-79v92q0 71 -26.5 106.5t-73 46.5t-125.5 11h-868q-84 0 -134 -11t-78 -46.5t-28 -106.5v-41h105v-84h-105v-570h-104v570h-106v84h106v41q0 92 35.5 146t110.5 78t198 24h868q93 0 154.5 -17.5
t96.5 -56.5q27 120 167 120q51 0 80 -13z" />
    <glyph glyph-name="uni093F0930094D0902.112" 
d="M1728 905q-42 0 -67 -22.5t-25 -79.5v-186h-25v-14h-79v92q0 71 -26.5 106.5t-73 46.5t-125.5 11h-868q-84 0 -134 -11t-78 -46.5t-28 -106.5v-41h105v-84h-105v-570h-104v570h-106v84h106v41q0 92 35.5 146t110.5 78t198 24h868q93 0 154.5 -17.5t96.5 -56.5
q27 120 167 120q51 0 80 -13v-87q-34 16 -77 16zM1814 773l-74 -73l-74 73l74 74z" />
    <glyph glyph-name="uni093F.113" 
d="M1545.5 919q71.5 -24 105.5 -78t35 -146v-92h-104v92q0 71 -26.5 106.5t-73 46.5t-125.5 11h-918q-84 0 -134 -11t-78 -46.5t-28 -106.5v-41h105v-84h-105v-570h-104v570h-106v84h106v41q0 92 35.5 146t110.5 78t198 24h918q117 0 188.5 -24z" />
    <glyph glyph-name="uni093F0902.113" horiz-adv-x="600" 
 />
    <glyph glyph-name="uni093F0930094D.113" 
d="M1855 976v-87q-34 16 -77 16q-42 0 -67 -22.5t-25 -79.5v-186h-25v-14h-79v92q0 71 -26.5 106.5t-73 46.5t-125.5 11h-918q-84 0 -134 -11t-78 -46.5t-28 -106.5v-41h105v-84h-105v-570h-104v570h-106v84h106v41q0 92 35.5 146t110.5 78t198 24h918q93 0 154.5 -17.5
t96.5 -56.5q27 120 167 120q51 0 80 -13z" />
    <glyph glyph-name="uni093F0930094D0902.113" 
d="M1778 905q-42 0 -67 -22.5t-25 -79.5v-186h-25v-14h-79v92q0 71 -26.5 106.5t-73 46.5t-125.5 11h-918q-84 0 -134 -11t-78 -46.5t-28 -106.5v-41h105v-84h-105v-570h-104v570h-106v84h106v41q0 92 35.5 146t110.5 78t198 24h918q93 0 154.5 -17.5t96.5 -56.5
q27 120 167 120q51 0 80 -13v-87q-34 16 -77 16zM1864 773l-74 -73l-74 73l74 74z" />
    <glyph glyph-name="uni093F.114" 
d="M1595.5 919q71.5 -24 105.5 -78t35 -146v-92h-104v92q0 71 -26.5 106.5t-73 46.5t-125.5 11h-968q-84 0 -134 -11t-78 -46.5t-28 -106.5v-41h105v-84h-105v-570h-104v570h-106v84h106v41q0 92 35.5 146t110.5 78t198 24h968q117 0 188.5 -24z" />
    <glyph glyph-name="uni093F0902.114" horiz-adv-x="600" 
 />
    <glyph glyph-name="uni093F0930094D.114" 
d="M1905 976v-87q-34 16 -77 16q-42 0 -67 -22.5t-25 -79.5v-186h-25v-14h-79v92q0 71 -26.5 106.5t-73 46.5t-125.5 11h-968q-84 0 -134 -11t-78 -46.5t-28 -106.5v-41h105v-84h-105v-570h-104v570h-106v84h106v41q0 92 35.5 146t110.5 78t198 24h968q93 0 154.5 -17.5
t96.5 -56.5q27 120 167 120q51 0 80 -13z" />
    <glyph glyph-name="uni093F0930094D0902.114" 
d="M1828 905q-42 0 -67 -22.5t-25 -79.5v-186h-25v-14h-79v92q0 71 -26.5 106.5t-73 46.5t-125.5 11h-968q-84 0 -134 -11t-78 -46.5t-28 -106.5v-41h105v-84h-105v-570h-104v570h-106v84h106v41q0 92 35.5 146t110.5 78t198 24h968q93 0 154.5 -17.5t96.5 -56.5
q27 120 167 120q51 0 80 -13v-87q-34 16 -77 16zM1914 773l-74 -73l-74 73l74 74z" />
    <glyph glyph-name="uni093F.115" 
d="M1645.5 919q71.5 -24 105.5 -78t35 -146v-92h-104v92q0 71 -26.5 106.5t-73 46.5t-125.5 11h-1018q-84 0 -134 -11t-78 -46.5t-28 -106.5v-41h105v-84h-105v-570h-104v570h-106v84h106v41q0 92 35.5 146t110.5 78t198 24h1018q117 0 188.5 -24z" />
    <glyph glyph-name="uni093F0902.115" horiz-adv-x="600" 
 />
    <glyph glyph-name="uni093F0930094D.115" 
d="M1955 976v-87q-34 16 -77 16q-42 0 -67 -22.5t-25 -79.5v-186h-25v-14h-79v92q0 71 -26.5 106.5t-73 46.5t-125.5 11h-1018q-84 0 -134 -11t-78 -46.5t-28 -106.5v-41h105v-84h-105v-570h-104v570h-106v84h106v41q0 92 35.5 146t110.5 78t198 24h1018q93 0 154.5 -17.5
t96.5 -56.5q27 120 167 120q51 0 80 -13z" />
    <glyph glyph-name="uni093F0930094D0902.115" 
d="M1878 905q-42 0 -67 -22.5t-25 -79.5v-186h-25v-14h-79v92q0 71 -26.5 106.5t-73 46.5t-125.5 11h-1018q-84 0 -134 -11t-78 -46.5t-28 -106.5v-41h105v-84h-105v-570h-104v570h-106v84h106v41q0 92 35.5 146t110.5 78t198 24h1018q93 0 154.5 -17.5t96.5 -56.5
q27 120 167 120q51 0 80 -13v-87q-34 16 -77 16zM1964 773l-74 -73l-74 73l74 74z" />
    <glyph glyph-name="uni093F.116" 
d="M1695.5 919q71.5 -24 105.5 -78t35 -146v-92h-104v92q0 71 -26.5 106.5t-73 46.5t-125.5 11h-1068q-84 0 -134 -11t-78 -46.5t-28 -106.5v-41h105v-84h-105v-570h-104v570h-106v84h106v41q0 92 35.5 146t110.5 78t198 24h1068q117 0 188.5 -24z" />
    <glyph glyph-name="uni093F0902.116" horiz-adv-x="600" 
 />
    <glyph glyph-name="uni093F0930094D.116" 
d="M2005 976v-87q-34 16 -77 16q-42 0 -67 -22.5t-25 -79.5v-186h-25v-14h-79v92q0 71 -26.5 106.5t-73 46.5t-125.5 11h-1068q-84 0 -134 -11t-78 -46.5t-28 -106.5v-41h105v-84h-105v-570h-104v570h-106v84h106v41q0 92 35.5 146t110.5 78t198 24h1068q93 0 154.5 -17.5
t96.5 -56.5q27 120 167 120q51 0 80 -13z" />
    <glyph glyph-name="uni093F0930094D0902.116" 
d="M1928 905q-42 0 -67 -22.5t-25 -79.5v-186h-25v-14h-79v92q0 71 -26.5 106.5t-73 46.5t-125.5 11h-1068q-84 0 -134 -11t-78 -46.5t-28 -106.5v-41h105v-84h-105v-570h-104v570h-106v84h106v41q0 92 35.5 146t110.5 78t198 24h1068q93 0 154.5 -17.5t96.5 -56.5
q27 120 167 120q51 0 80 -13v-87q-34 16 -77 16zM2014 773l-74 -73l-74 73l74 74z" />
    <glyph glyph-name="uni093F.117" 
d="M1745.5 919q71.5 -24 105.5 -78t35 -146v-92h-104v92q0 71 -26.5 106.5t-73 46.5t-125.5 11h-1118q-84 0 -134 -11t-78 -46.5t-28 -106.5v-41h105v-84h-105v-570h-104v570h-106v84h106v41q0 92 35.5 146t110.5 78t198 24h1118q117 0 188.5 -24z" />
    <glyph glyph-name="uni093F0902.117" horiz-adv-x="600" 
 />
    <glyph glyph-name="uni093F0930094D.117" 
d="M2055 976v-87q-34 16 -77 16q-42 0 -67 -22.5t-25 -79.5v-186h-25v-14h-79v92q0 71 -26.5 106.5t-73 46.5t-125.5 11h-1118q-84 0 -134 -11t-78 -46.5t-28 -106.5v-41h105v-84h-105v-570h-104v570h-106v84h106v41q0 92 35.5 146t110.5 78t198 24h1118q93 0 154.5 -17.5
t96.5 -56.5q27 120 167 120q51 0 80 -13z" />
    <glyph glyph-name="uni093F0930094D0902.117" 
d="M1978 905q-42 0 -67 -22.5t-25 -79.5v-186h-25v-14h-79v92q0 71 -26.5 106.5t-73 46.5t-125.5 11h-1118q-84 0 -134 -11t-78 -46.5t-28 -106.5v-41h105v-84h-105v-570h-104v570h-106v84h106v41q0 92 35.5 146t110.5 78t198 24h1118q93 0 154.5 -17.5t96.5 -56.5
q27 120 167 120q51 0 80 -13v-87q-34 16 -77 16zM2064 773l-74 -73l-74 73l74 74z" />
    <glyph glyph-name="uni093F.118" 
d="M1795.5 919q71.5 -24 105.5 -78t35 -146v-92h-104v92q0 71 -26.5 106.5t-73 46.5t-125.5 11h-1168q-84 0 -134 -11t-78 -46.5t-28 -106.5v-41h105v-84h-105v-570h-104v570h-106v84h106v41q0 92 35.5 146t110.5 78t198 24h1168q117 0 188.5 -24z" />
    <glyph glyph-name="uni093F0902.118" horiz-adv-x="600" 
 />
    <glyph glyph-name="uni093F0930094D.118" 
d="M2105 976v-87q-34 16 -77 16q-42 0 -67 -22.5t-25 -79.5v-186h-25v-14h-79v92q0 71 -26.5 106.5t-73 46.5t-125.5 11h-1168q-84 0 -134 -11t-78 -46.5t-28 -106.5v-41h105v-84h-105v-570h-104v570h-106v84h106v41q0 92 35.5 146t110.5 78t198 24h1168q93 0 154.5 -17.5
t96.5 -56.5q27 120 167 120q51 0 80 -13z" />
    <glyph glyph-name="uni093F0930094D0902.118" 
d="M2028 905q-42 0 -67 -22.5t-25 -79.5v-186h-25v-14h-79v92q0 71 -26.5 106.5t-73 46.5t-125.5 11h-1168q-84 0 -134 -11t-78 -46.5t-28 -106.5v-41h105v-84h-105v-570h-104v570h-106v84h106v41q0 92 35.5 146t110.5 78t198 24h1168q93 0 154.5 -17.5t96.5 -56.5
q27 120 167 120q51 0 80 -13v-87q-34 16 -77 16zM2114 773l-74 -73l-74 73l74 74z" />
    <glyph glyph-name="uni093F.119" 
d="M1845.5 919q71.5 -24 105.5 -78t35 -146v-92h-104v92q0 71 -26.5 106.5t-73 46.5t-125.5 11h-1218q-84 0 -134 -11t-78 -46.5t-28 -106.5v-41h105v-84h-105v-570h-104v570h-106v84h106v41q0 92 35.5 146t110.5 78t198 24h1218q117 0 188.5 -24z" />
    <glyph glyph-name="uni093F0902.119" horiz-adv-x="600" 
 />
    <glyph glyph-name="uni093F0930094D.119" 
d="M2155 976v-87q-34 16 -77 16q-42 0 -67 -22.5t-25 -79.5v-186h-25v-14h-79v92q0 71 -26.5 106.5t-73 46.5t-125.5 11h-1218q-84 0 -134 -11t-78 -46.5t-28 -106.5v-41h105v-84h-105v-570h-104v570h-106v84h106v41q0 92 35.5 146t110.5 78t198 24h1218q93 0 154.5 -17.5
t96.5 -56.5q27 120 167 120q51 0 80 -13z" />
    <glyph glyph-name="uni093F0930094D0902.119" 
d="M2078 905q-42 0 -67 -22.5t-25 -79.5v-186h-25v-14h-79v92q0 71 -26.5 106.5t-73 46.5t-125.5 11h-1218q-84 0 -134 -11t-78 -46.5t-28 -106.5v-41h105v-84h-105v-570h-104v570h-106v84h106v41q0 92 35.5 146t110.5 78t198 24h1218q93 0 154.5 -17.5t96.5 -56.5
q27 120 167 120q51 0 80 -13v-87q-34 16 -77 16zM2164 773l-74 -73l-74 73l74 74z" />
    <glyph glyph-name="uni093F.120" 
d="M1895.5 919q71.5 -24 105.5 -78t35 -146v-92h-104v92q0 71 -26.5 106.5t-73 46.5t-125.5 11h-1268q-84 0 -134 -11t-78 -46.5t-28 -106.5v-41h105v-84h-105v-570h-104v570h-106v84h106v41q0 92 35.5 146t110.5 78t198 24h1268q117 0 188.5 -24z" />
    <glyph glyph-name="uni093F0902.120" horiz-adv-x="600" 
 />
    <glyph glyph-name="uni093F0930094D.120" 
d="M2205 976v-87q-34 16 -77 16q-42 0 -67 -22.5t-25 -79.5v-186h-25v-14h-79v92q0 71 -26.5 106.5t-73 46.5t-125.5 11h-1268q-84 0 -134 -11t-78 -46.5t-28 -106.5v-41h105v-84h-105v-570h-104v570h-106v84h106v41q0 92 35.5 146t110.5 78t198 24h1268q93 0 154.5 -17.5
t96.5 -56.5q27 120 167 120q51 0 80 -13z" />
    <glyph glyph-name="uni093F0930094D0902.120" 
d="M2128 905q-42 0 -67 -22.5t-25 -79.5v-186h-25v-14h-79v92q0 71 -26.5 106.5t-73 46.5t-125.5 11h-1268q-84 0 -134 -11t-78 -46.5t-28 -106.5v-41h105v-84h-105v-570h-104v570h-106v84h106v41q0 92 35.5 146t110.5 78t198 24h1268q93 0 154.5 -17.5t96.5 -56.5
q27 120 167 120q51 0 80 -13v-87q-34 16 -77 16zM2214 773l-74 -73l-74 73l74 74z" />
    <glyph glyph-name="uni093F.121" 
d="M1945.5 919q71.5 -24 105.5 -78t35 -146v-92h-104v92q0 71 -26.5 106.5t-73 46.5t-125.5 11h-1318q-84 0 -134 -11t-78 -46.5t-28 -106.5v-41h105v-84h-105v-570h-104v570h-106v84h106v41q0 92 35.5 146t110.5 78t198 24h1318q117 0 188.5 -24z" />
    <glyph glyph-name="uni093F0902.121" horiz-adv-x="600" 
 />
    <glyph glyph-name="uni093F0930094D.121" 
d="M2255 976v-87q-34 16 -77 16q-42 0 -67 -22.5t-25 -79.5v-186h-25v-14h-79v92q0 71 -26.5 106.5t-73 46.5t-125.5 11h-1318q-84 0 -134 -11t-78 -46.5t-28 -106.5v-41h105v-84h-105v-570h-104v570h-106v84h106v41q0 92 35.5 146t110.5 78t198 24h1318q93 0 154.5 -17.5
t96.5 -56.5q27 120 167 120q51 0 80 -13z" />
    <glyph glyph-name="uni093F0930094D0902.121" 
d="M2178 905q-42 0 -67 -22.5t-25 -79.5v-186h-25v-14h-79v92q0 71 -26.5 106.5t-73 46.5t-125.5 11h-1318q-84 0 -134 -11t-78 -46.5t-28 -106.5v-41h105v-84h-105v-570h-104v570h-106v84h106v41q0 92 35.5 146t110.5 78t198 24h1318q93 0 154.5 -17.5t96.5 -56.5
q27 120 167 120q51 0 80 -13v-87q-34 16 -77 16zM2264 773l-74 -73l-74 73l74 74z" />
    <glyph glyph-name="uni093F.01" 
d="M568 919q63 -24 93 -78t31 -146v-87h-104v87q0 71 -22 106.5t-60.5 46.5t-103.5 11h-16q-66 0 -104.5 -11t-60 -46.5t-21.5 -106.5v-41h105v-84h-105v-570h-104v570h-107v84h107v41q0 92 30 146t93 78t167 24h16q103 0 166 -24z" />
    <glyph glyph-name="uni093F.02" 
d="M637.5 919q66.5 -24 98.5 -78t33 -146v-87h-104v87q0 71 -24 106.5t-66 46.5t-114 11h-38q-79 0 -125 -11t-72 -46.5t-26 -106.5v-41h105v-84h-105v-570h-104v570h-107v84h107v41q0 92 33.5 146t105 78t188.5 24h38q110 0 176.5 -24z" />
    <glyph glyph-name="uni093F.03" 
d="M653 919q67 -24 99.5 -78t33.5 -146v-87h-104v87q0 71 -24.5 106.5t-67 46.5t-115.5 11h-46q-81 0 -128.5 -11t-74 -46t-26.5 -107v-41h105v-84h-105v-570h-104v570h-107v84h107v41q0 92 34.5 146t107 78t191.5 24h46q111 0 178 -24z" />
    <glyph glyph-name="uni093F.04" 
d="M703 919q70 -24 103 -78.5t33 -145.5v-87h-104v87q0 71 -25 106.5t-70 46.5t-121 11h-81q-84 0 -133.5 -11t-77 -46.5t-27.5 -106.5v-41h105v-84h-105v-570h-104v570h-107v84h107v41q0 92 35 146t109.5 78t197.5 24h81q114 0 184 -24z" />
    <glyph glyph-name="uni093F.05" 
d="M680 919q70 -24 103.5 -78t34.5 -146v-92h-104v92q0 71 -25.5 106.5t-71 46.5t-122.5 11h-62q-82 0 -130.5 -11t-76 -46.5t-27.5 -106.5v-41h105v-84h-105v-570h-104v570h-106v84h106v41q0 92 35 146t108.5 78t194.5 24h62q115 0 185 -24z" />
    <glyph glyph-name="uni093F.06" 
d="M780.5 919q71.5 -24 105 -78t34.5 -146v-92h-104v92q0 71 -26 106.5t-72.5 46.5t-125.5 11h-153q-84 0 -134 -11t-78 -46.5t-28 -106.5v-41h105v-84h-105v-570h-104v570h-106v84h106v41q0 92 35.5 146t110.5 78t198 24h153q117 0 188.5 -24z" />
    <glyph glyph-name="uni093F.07" 
d="M844.5 919q71.5 -24 105.5 -78t35 -146v-92h-104v92q0 71 -26.5 106.5t-73 46.5t-125.5 11h-217q-84 0 -134 -11t-78 -46.5t-28 -106.5v-41h105v-84h-105v-570h-104v570h-106v84h106v41q0 92 35.5 146t110.5 78t198 24h217q117 0 188.5 -24z" />
    <glyph glyph-name="uni093F.10" 
d="M952.5 919q71.5 -24 105 -78t34.5 -146v-92h-104v92q0 71 -26 106.5t-72.5 46.5t-125.5 11h-325q-84 0 -134 -11t-78 -46.5t-28 -106.5v-41h105v-84h-105v-570h-104v570h-106v84h106v41q0 92 35.5 146t110.5 78t198 24h325q117 0 188.5 -24z" />
    <glyph glyph-name="uni093F0902.01" 
d="M568 919q63 -24 93 -78t31 -146v-87h-104v87q0 71 -22 106.5t-60.5 46.5t-103.5 11h-16q-66 0 -104.5 -11t-60 -46.5t-21.5 -106.5v-41h105v-84h-105v-570h-104v570h-107v84h107v41q0 92 30 146t93 78t167 24h16q103 0 166 -24zM874 763l-74 -73l-74 73l74 74z" />
    <glyph glyph-name="uni093F0902.02" 
d="M619.5 919q66.5 -24 98.5 -78t33 -146v-87h-104v87q0 71 -24 106.5t-66 46.5t-114 11h-20q-79 0 -125 -11t-72 -46.5t-26 -106.5v-41h105v-84h-105v-570h-104v570h-107v84h107v41q0 92 33.5 146t105 78t188.5 24h20q110 0 176.5 -24zM935 763l-74 -73l-74 73l74 74z" />
    <glyph glyph-name="uni093F0902.03" 
d="M630.5 919q67.5 -24 99.5 -78t33 -146v-87h-104v87q0 71 -24 106.5t-67 46.5t-116 11h-23q-81 0 -128.5 -11t-74 -46t-26.5 -107v-41h105v-84h-105v-570h-104v570h-107v84h107v41q0 92 34.5 146t107 78t191.5 24h23q111 0 178.5 -24zM952 763l-74 -73l-74 73l74 74z" />
    <glyph glyph-name="uni093F0902.04" 
d="M644.5 919q69.5 -24 103 -78.5t33.5 -145.5v-87h-104v87q0 71 -25.5 106.5t-70 46.5t-120.5 11h-23q-84 0 -133.5 -11t-77 -46.5t-27.5 -106.5v-41h105v-84h-105v-570h-104v570h-107v84h107v41q0 92 35 146t109.5 78t197.5 24h23q114 0 183.5 -24zM965 763l-74 -73
l-74 73l74 74z" />
    <glyph glyph-name="uni093F0902.05" 
d="M666.5 919q70.5 -24 103.5 -78t34 -146v-92h-104v92q0 71 -25.5 106.5t-71 46.5t-122.5 11h-48q-82 0 -130.5 -11t-76 -46.5t-27.5 -106.5v-41h105v-84h-105v-570h-104v570h-106v84h106v41q0 92 35 146t108.5 78t194.5 24h48q115 0 185.5 -24zM983 768l-74 -73l-74 73
l74 74z" />
    <glyph glyph-name="uni093F0902.06" 
d="M762.5 919q71.5 -24 105 -78t34.5 -146v-92h-104v92q0 71 -26 106.5t-72.5 46.5t-125.5 11h-135q-84 0 -134 -11t-78 -46.5t-28 -106.5v-41h105v-84h-105v-570h-104v570h-106v84h106v41q0 92 35.5 146t110.5 78t198 24h135q117 0 188.5 -24zM1086 763l-74 -73l-74 73
l74 74z" />
    <glyph glyph-name="uni093F0902.07" 
d="M844.5 919q71.5 -24 105.5 -78t35 -146v-92h-104v92q0 71 -26.5 106.5t-73 46.5t-125.5 11h-217q-84 0 -134 -11t-78 -46.5t-28 -106.5v-41h105v-84h-105v-570h-104v570h-106v84h106v41q0 92 35.5 146t110.5 78t198 24h217q117 0 188.5 -24zM1168 763l-74 -73l-74 73
l74 74z" />
    <glyph glyph-name="uni093F0902.10" 
d="M853.5 919q71.5 -24 105 -78t34.5 -146v-92h-104v92q0 71 -26 106.5t-72.5 46.5t-125.5 11h-226q-84 0 -134 -11t-78 -46.5t-28 -106.5v-41h105v-84h-105v-570h-104v570h-106v84h106v41q0 92 35.5 146t110.5 78t198 24h226q117 0 188.5 -24zM1177 763l-74 -73l-74 73
l74 74z" />
    <glyph glyph-name="uni093F0930094D.01" 
d="M861 976v-87q-34 16 -77 16q-42 0 -67 -22.5t-25 -79.5v-186h-25v-9h-79v87q0 71 -22 106.5t-60.5 46.5t-103.5 11h-16q-66 0 -104.5 -11t-60 -46.5t-21.5 -106.5v-41h105v-84h-105v-570h-104v570h-107v84h107v41q0 92 30 146t93 78t167 24h16q77 0 129.5 -16.5
t83.5 -51.5q29 114 166 114q51 0 80 -13z" />
    <glyph glyph-name="uni093F0930094D.02" 
d="M938 976v-87q-32 16 -77 16q-42 0 -67 -22.5t-25 -79.5v-186h-25v-9h-79v87q0 71 -24 106.5t-66 46.5t-114 11h-38q-79 0 -125 -11t-72 -46.5t-26 -106.5v-41h105v-84h-105v-570h-104v570h-107v84h107v41q0 92 33.5 146t105 78t188.5 24h38q85 0 141.5 -17t89.5 -54
q28 117 167 117q50 0 79 -13z" />
    <glyph glyph-name="uni093F0930094D.03" 
d="M955 976v-87q-34 16 -77 16q-42 0 -67 -22.5t-25 -79.5v-186h-25v-9h-79v87q0 71 -24.5 106.5t-67 46.5t-115.5 11h-46q-81 0 -128.5 -11t-74 -46t-26.5 -107v-41h105v-84h-105v-570h-104v570h-107v84h107v41q0 92 34.5 146t107 78t191.5 24h46q86 0 143 -17t90 -55
q28 118 167 118q51 0 80 -13z" />
    <glyph glyph-name="uni093F0930094D.04" 
d="M1008 976v-87q-32 16 -77 16q-42 0 -67 -22.5t-25 -79.5v-186h-25v-9h-79v87q0 71 -25 106.5t-70 46.5t-121 11h-81q-84 0 -133.5 -11t-77 -46.5t-27.5 -106.5v-41h105v-84h-105v-570h-104v570h-107v84h107v41q0 92 35 146t109.5 78t197.5 24h81q90 0 149 -17.5t94 -55.5
q27 119 167 119q50 0 79 -13z" />
    <glyph glyph-name="uni093F0930094D.05" 
d="M987 976v-87q-34 16 -77 16q-42 0 -67 -22.5t-25 -79.5v-186h-25v-14h-79v92q0 71 -25.5 106.5t-71 46.5t-122.5 11h-62q-82 0 -130.5 -11t-76 -46.5t-27.5 -106.5v-41h105v-84h-105v-570h-104v570h-106v84h106v41q0 92 35 146t108.5 78t194.5 24h62q91 0 150.5 -17.5
t94.5 -56.5q27 120 167 120q51 0 80 -13z" />
    <glyph glyph-name="uni093F0930094D.06" 
d="M1089 976v-87q-32 16 -77 16q-42 0 -67 -22.5t-25 -79.5v-186h-25v-14h-79v92q0 71 -26 106.5t-72.5 46.5t-125.5 11h-153q-84 0 -134 -11t-78 -46.5t-28 -106.5v-41h105v-84h-105v-570h-104v570h-106v84h106v41q0 92 35.5 146t110.5 78t198 24h153q93 0 154 -17.5
t96 -56.5q28 120 168 120q50 0 79 -13z" />
    <glyph glyph-name="uni093F0930094D.07" 
d="M1154 976v-87q-34 16 -77 16q-42 0 -67 -22.5t-25 -79.5v-186h-25v-14h-79v92q0 71 -26.5 106.5t-73 46.5t-125.5 11h-217q-84 0 -134 -11t-78 -46.5t-28 -106.5v-41h105v-84h-105v-570h-104v570h-106v84h106v41q0 92 35.5 146t110.5 78t198 24h217q93 0 154.5 -17.5
t96.5 -56.5q27 120 167 120q51 0 80 -13z" />
    <glyph glyph-name="uni093F0930094D.10" 
d="M1261 976v-87q-32 16 -77 16q-42 0 -67 -22.5t-25 -79.5v-186h-25v-14h-79v92q0 71 -26 106.5t-72.5 46.5t-125.5 11h-325q-84 0 -134 -11t-78 -46.5t-28 -106.5v-41h105v-84h-105v-570h-104v570h-106v84h106v41q0 92 35.5 146t110.5 78t198 24h325q93 0 154 -17.5
t96 -56.5q28 120 168 120q50 0 79 -13z" />
    <glyph glyph-name="uni093F0930094D0902.01" 
d="M784 905q-42 0 -67 -22.5t-25 -79.5v-186h-25v-9h-79v87q0 71 -22 106.5t-60.5 46.5t-103.5 11h-16q-66 0 -104.5 -11t-60 -46.5t-21.5 -106.5v-41h105v-84h-105v-570h-104v570h-107v84h107v41q0 92 30 146t93 78t167 24h16q77 0 129.5 -16.5t83.5 -51.5q29 114 166 114
q51 0 80 -13v-87q-34 16 -77 16zM869 773l-74 -73l-74 73l74 74z" />
    <glyph glyph-name="uni093F0930094D0902.02" 
d="M861 905q-42 0 -67 -22.5t-25 -79.5v-186h-25v-9h-79v87q0 71 -24 106.5t-66 46.5t-114 11h-38q-79 0 -125 -11t-72 -46.5t-26 -106.5v-41h105v-84h-105v-570h-104v570h-107v84h107v41q0 92 33.5 146t105 78t188.5 24h38q85 0 141.5 -17t89.5 -54q28 117 167 117
q50 0 79 -13v-87q-32 16 -77 16zM948 773l-74 -73l-74 73l74 74z" />
    <glyph glyph-name="uni093F0930094D0902.03" 
d="M878 905q-42 0 -67 -22.5t-25 -79.5v-186h-25v-9h-79v87q0 71 -24.5 106.5t-67 46.5t-115.5 11h-46q-81 0 -128.5 -11t-74 -46t-26.5 -107v-41h105v-84h-105v-570h-104v570h-107v84h107v41q0 92 34.5 146t107 78t191.5 24h46q86 0 143 -17t90 -55q28 118 167 118
q51 0 80 -13v-87q-34 16 -77 16zM964 773l-74 -73l-74 73l74 74z" />
    <glyph glyph-name="uni093F0930094D0902.04" 
d="M931 905q-42 0 -67 -22.5t-25 -79.5v-186h-25v-9h-79v87q0 71 -25 106.5t-70 46.5t-121 11h-81q-84 0 -133.5 -11t-77 -46.5t-27.5 -106.5v-41h105v-84h-105v-570h-104v570h-107v84h107v41q0 92 35 146t109.5 78t197.5 24h81q90 0 149 -17.5t94 -55.5q27 119 167 119
q50 0 79 -13v-87q-32 16 -77 16zM1018 773l-74 -73l-74 73l74 74z" />
    <glyph glyph-name="uni093F0930094D0902.05" 
d="M910 905q-42 0 -67 -22.5t-25 -79.5v-186h-25v-14h-79v92q0 71 -25.5 106.5t-71 46.5t-122.5 11h-62q-82 0 -130.5 -11t-76 -46.5t-27.5 -106.5v-41h105v-84h-105v-570h-104v570h-106v84h106v41q0 92 35 146t108.5 78t194.5 24h62q91 0 150.5 -17.5t94.5 -56.5
q27 120 167 120q51 0 80 -13v-87q-34 16 -77 16zM991 773l-74 -73l-74 73l74 74z" />
    <glyph glyph-name="uni093F0930094D0902.06" 
d="M1012 905q-42 0 -67 -22.5t-25 -79.5v-186h-25v-14h-79v92q0 71 -26 106.5t-72.5 46.5t-125.5 11h-153q-84 0 -134 -11t-78 -46.5t-28 -106.5v-41h105v-84h-105v-570h-104v570h-106v84h106v41q0 92 35.5 146t110.5 78t198 24h153q93 0 154 -17.5t96 -56.5q28 120 168 120
q50 0 79 -13v-87q-32 16 -77 16zM1099 773l-74 -73l-74 73l74 74z" />
    <glyph glyph-name="uni093F0930094D0902.07" 
d="M1077 905q-42 0 -67 -22.5t-25 -79.5v-186h-25v-14h-79v92q0 71 -26.5 106.5t-73 46.5t-125.5 11h-217q-84 0 -134 -11t-78 -46.5t-28 -106.5v-41h105v-84h-105v-570h-104v570h-106v84h106v41q0 92 35.5 146t110.5 78t198 24h217q93 0 154.5 -17.5t96.5 -56.5
q27 120 167 120q51 0 80 -13v-87q-34 16 -77 16zM1163 773l-74 -73l-74 73l74 74z" />
    <glyph glyph-name="uni093F0930094D0902.10" 
d="M1184 905q-42 0 -67 -22.5t-25 -79.5v-186h-25v-14h-79v92q0 71 -26 106.5t-72.5 46.5t-125.5 11h-325q-84 0 -134 -11t-78 -46.5t-28 -106.5v-41h105v-84h-105v-570h-104v570h-106v84h106v41q0 92 35.5 146t110.5 78t198 24h325q93 0 154 -17.5t96 -56.5q28 120 168 120
q50 0 79 -13v-87q-32 16 -77 16zM1271 773l-74 -73l-74 73l74 74z" />
    <glyph glyph-name="uni0940.05" 
d="M305 570h-106v-570h-104v570h-105v84h105v41q0 72 -15.5 107t-44 46t-77.5 11h-17q-43 0 -68 -11t-39 -46.5t-14 -106.5v-102h-104v102q0 92 23 146t72 78t130 24h17q87 0 139.5 -24t77 -78t24.5 -146v-41h106v-84z" />
    <glyph glyph-name="iiMatradeva_anusvara.05" 
d="M0 0zM305 570h-106v-570h-104v570h-105v84h105v41q0 72 -15.5 107t-44 46t-77.5 11h-17q-43 0 -68 -11t-39 -46.5t-14 -106.5v-102h-104v102q0 92 23 146t72 78t130 24h17q87 0 139.5 -24t77 -78t24.5 -146v-41h106v-84zM229 763l74 74l74 -74l-74 -73z" />
    <glyph glyph-name="uni0940.10" 
d="M305 570h-106v-570h-104v570h-105v84h105v41q0 72 -26 107t-72.5 46t-126.5 11h-17q-74 0 -117.5 -11t-67.5 -46t-24 -107v-102h-104v102q0 92 32 146t100 78t181 24h17q119 0 190.5 -24t105 -78t33.5 -146v-41h106v-84z" />
    <glyph glyph-name="uni09400902.10" 
d="M199 654h106v-84h-106v-570h-104v570h-105v84h105v41q0 72 -26 107t-72.5 46t-126.5 11h-17q-74 0 -117.5 -11t-67.5 -46t-24 -107v-102h-104v102q0 92 32 146t100 78t181 24h17q119 0 190.5 -24t105 -78t33.5 -146v-41zM303 690l-74 73l74 74l74 -74z" />
    <glyph glyph-name="uni09400930094D.05" 
d="M200 777v-123h105v-84h-106v-570h-104v570h-105v84h105v41q0 72 -15.5 107t-44 46t-77.5 11h-17q-43 0 -68 -11t-39 -46.5t-14 -106.5v-102h-104v102q0 92 23 146t72 78t130 24h17q67 0 110.5 -17.5t68.5 -55.5q33 74 138 74q46 0 79 -13v-87q-36 16 -72 16
q-82 0 -82 -83z" />
    <glyph glyph-name="uni09400930094D.10" 
d="M224 882.5q-25 -22.5 -25 -79.5v-149h106v-84h-106v-570h-104v570h-105v84h105v41q0 72 -26 107t-72.5 46t-126.5 11h-17q-74 0 -117.5 -11t-67.5 -46t-24 -107v-102h-104v102q0 92 32 146t100 78t181 24h17q95 0 156.5 -15.5t97.5 -48.5q31 110 165 110q50 0 79 -13v-87
q-32 16 -77 16q-42 0 -67 -22.5z" />
    <glyph glyph-name="uni09400930094D0902.05" 
d="M199 654h106v-84h-106v-570h-104v570h-105v84h105v41q0 72 -15.5 107t-44 46t-77.5 11h-17q-43 0 -68 -11t-39 -46.5t-14 -106.5v-102h-104v102q0 92 23 146t72 78t130 24h17q60 0 101 -14t67 -44q32 104 163 104q50 0 79 -13v-87q-32 16 -77 16q-42 0 -67 -22.5
t-25 -79.5v-149zM303 847l74 -74l-74 -73l-74 73z" />
    <glyph glyph-name="uni09400930094D0902.10" 
d="M199 654h106v-84h-106v-570h-104v570h-105v84h105v41q0 72 -26 107t-72.5 46t-126.5 11h-17q-74 0 -117.5 -11t-67.5 -46t-24 -107v-102h-104v102q0 92 32 146t100 78t181 24h17q95 0 156.5 -15.5t97.5 -48.5q31 110 165 110q50 0 79 -13v-87q-32 16 -77 16
q-42 0 -67 -22.5t-25 -79.5v-149zM303 847l74 -74l-74 -73l-74 73z" />
    <glyph glyph-name="uni0932.loclMAR" horiz-adv-x="779" 
d="M594 570v-145q67 -14 101.5 -66.5t34.5 -131.5q0 -96 -56.5 -161.5t-186.5 -65.5h-32v84h32q78 0 108 40t31 103q-2 119 -90 119q-86 0 -88 -119v-29h-104v29q-2 119 -87 119q-89 0 -91 -119q2 -64 31.5 -103.5t107.5 -39.5h32v-84h-32q-129 0 -186 65.5t-57 161.5
q0 92 47.5 147.5t137.5 55.5q53 0 90.5 -20t58.5 -56q32 54 94 70v146h-500v84h799v-84h-195z" />
    <glyph glyph-name="uni0936.loclMAR" horiz-adv-x="732" 
d="M742 570h-105v-570h-104v570h-263l26 -20l-14 -49q72 -8 104 -50.5t32 -122.5q-1 -83 -53.5 -137t-152.5 -66l126 -140l-71 -59l-170 196h-45v84h105q155 0 157 122q0 55 -14.5 75.5t-54.5 20.5q-35 0 -51.5 -20.5t-17.5 -70.5v-38h-104v48q1 70 33 109.5t101 48.5
l-14 11l15 58h-218v84h753v-84z" />
    <glyph glyph-name="uni091D.loclNEP" horiz-adv-x="956" 
d="M600 570v-147q53 26 114 26h12q103 0 150.5 -37t47.5 -130q0 -91 -47.5 -129t-146.5 -38h-12q-15 0 -32 1.5t-28 3.5v84q27 -5 54 -5h12q48 0 72 18t24 65q0 50 -24.5 66.5t-80.5 16.5h-11q-30 0 -54.5 -5.5t-49.5 -19.5v-340h-104v248h-201v-87h-104v382q0 23 -6.5 31.5
t-24.5 8.5q-17 0 -23.5 -9t-6.5 -31v-58h-94v58q0 59 30.5 89t98.5 30q70 0 100 -29.5t30 -89.5v-211h201v238h-103v84h573v-84h-366z" />
    <glyph glyph-name="uni0979.loclNEP" horiz-adv-x="733" 
d="M343 570v-120q68 19 124 19q122 0 179.5 -49t57.5 -152q-1 -101 -56 -154t-172 -53h-15v-80h-104v245h104v-81h8q54 0 82 14.5t38 41t11 69.5q0 63 -31.5 89t-101.5 26q-59 0 -125 -19q-1 -91 -53.5 -130t-159.5 -39h-97v84h95q60 0 86 18.5t26 70.5v200h-249v84h753v-84
h-400z" />
    <glyph glyph-name="uni0928.post" horiz-adv-x="0" 
d="M-430.5 40.5q-35.5 30.5 -35.5 79.5q0 30 18.5 54.5t57.5 49.5l227 143l45 -70l-222 -140q-12 -8 -17.5 -15t-5.5 -16q0 -14 12 -21.5t33 -7.5t31 2l2 -84q-30 -5 -56 -5q-54 0 -89.5 30.5z" />
    <glyph glyph-name="uni092F.post" horiz-adv-x="807" 
d="M817 654v-84h-105v-570h-104v107q-32 -15 -66.5 -22.5t-63.5 -7.5q-88 0 -143.5 38t-89.5 136q69 19 94 37t25 45q0 29 -35 43t-111 14h-122v84h121q98 0 153 -15.5t76.5 -44t21.5 -70.5q0 -46 -24 -77t-76 -51q18 -33 47 -44t69 -11q62 0 124 34v375h-618v84h827z" />
    <glyph glyph-name="uni0930.post" horiz-adv-x="0" 
d="M-502 60l345 289l61 -67l-344 -291z" />
    <glyph glyph-name="uni0935.post" horiz-adv-x="0" 
d="M-85 159v-453h-104v79q-44 -19 -94 -19h-12q-77 0 -117.5 30.5t-40.5 98.5q0 66 38.5 98t105.5 32h12q33 0 55 -4v-79q-20 4 -44 4h-12q-56 0 -56 -51q0 -28 17.5 -39t52.5 -11h11q46 0 84 17v297h104z" />
    <glyph glyph-name="uni0915094D0915" horiz-adv-x="1393" 
d="M1037 570v-147q51 26 115 26h11q103 0 150.5 -37t47.5 -130q0 -91 -47 -129t-147 -38h-12q-15 0 -32 1.5t-28 3.5v84q28 -5 54 -5h12q48 0 72 18t24 65q0 50 -24.5 66.5t-80.5 16.5h-11q-30 0 -54.5 -5.5t-49.5 -19.5v-340h-104v141q-53 -26 -114 -26h-11
q-91 1 -138.5 29t-56.5 97h-153v-241h-104v141q-53 -26 -114 -26h-11q-103 1 -150.5 37.5t-47.5 129.5q0 91 47 129t147 38h12q15 0 32 -1.5t28 -3.5v-83q-34 4 -54 4h-12q-48 0 -72 -18t-24 -65q0 -49 24.5 -65.5t80.5 -17.5h11q29 0 53.5 5.5t49.5 19.5v346h-366v84h1413
v-84h-366zM884 204.5q24 5.5 49 19.5v346h-473v-245h153q10 67 56.5 95.5t134.5 28.5h12q15 0 32 -1.5t28 -3.5v-83q-34 4 -54 4h-12q-48 0 -72 -18t-24 -65q0 -49 24.5 -65.5t80.5 -17.5h11q30 0 54 5.5z" />
    <glyph glyph-name="uni0915094D0924" horiz-adv-x="854" 
d="M498 570v-147q53 26 114 26h12q103 0 150.5 -37t47.5 -130q0 -91 -47.5 -129t-146.5 -38h-12q-15 0 -32 1.5t-28 3.5v84q27 -5 54 -5h12q48 0 72 18t24 65q0 50 -24.5 66.5t-80.5 16.5h-11q-30 0 -54.5 -5.5t-49.5 -19.5v-340h-104v385h-90q-37 0 -58.5 -12.5t-33 -46
t-11.5 -97.5q1 -82 26.5 -113.5t78.5 -31.5h17v-84h-17q-102 0 -155.5 53t-53.5 173q0 103 41 159h-110v84h366v101h-404v84h874v-84h-366z" />
    <glyph glyph-name="uni0915094D0924094D" horiz-adv-x="609" 
d="M676 241h-178v-241h-104v385h-90q-37 0 -58.5 -12.5t-33 -46t-11.5 -97.5q1 -82 26.5 -113.5t78.5 -31.5h17v-84h-17q-102 0 -155.5 53t-53.5 173q0 103 41 159h-110v84h366v101h-404v84h629v-84h-121v-245h178v-84z" />
    <glyph glyph-name="uni0915094D0930" horiz-adv-x="796" 
d="M460 570v-147q53 26 115 26h11q103 0 150.5 -37t47.5 -130q0 -91 -47 -129t-147 -38h-12q-15 0 -32 1.5t-28 3.5v84q28 -5 54 -5h12q48 0 72 18t24 65q0 50 -24.5 66.5t-80.5 16.5h-11q-30 0 -54.5 -5.5t-49.5 -19.5v-340h-104v141l-260 -180l-51 75l131 82
q-73 8 -108 46t-35 118q0 91 47 129t147 38h12q15 0 32 -1.5t28 -3.5v-83q-34 4 -54 4h-12q-48 0 -72 -18t-24 -65q0 -49 24.5 -65.5t80.5 -17.5h11q29 0 53.5 5.5t49.5 19.5v346h-366v84h836v-84h-366z" />
    <glyph glyph-name="uni0915094D0932" horiz-adv-x="1369" 
d="M1379 570h-105l-1 -570h-104l1 343q-22 13 -51 13q-46 0 -69.5 -31.5t-24.5 -92.5v-29h-25v-5h-79v29q-2 119 -87 119q-89 0 -91 -119q2 -64 31.5 -103.5t107.5 -39.5h32v-84h-32q-129 0 -186 65.5t-57 161.5v14h-179v-241h-104v141q-53 -26 -114 -26h-11
q-103 1 -150.5 37.5t-47.5 129.5q0 91 47 129t147 38h12q15 0 32 -1.5t28 -3.5v-83q-34 4 -54 4h-12q-48 0 -72 -18t-24 -65q0 -49 24.5 -65.5t80.5 -17.5h11q29 0 53.5 5.5t49.5 19.5v346h-366v84h1389v-84zM1170 432v138h-710v-245h184v-45q12 70 58 110t122 40
q102 0 145 -70q42 80 145 80q29 0 56 -8z" />
    <glyph glyph-name="uni0915094D0937" horiz-adv-x="779" 
d="M316 194h104v-249h-104v85q-27 -6 -60 -6h-7q-102 0 -153 38.5t-51 125.5q0 48 20 81.5t49.5 55t75.5 47.5q40 23 63.5 40t39 40.5t15.5 55.5q0 37 -15 56.5t-49 19.5q-64 0 -64 -80v-50h-104v54q1 75 43.5 115t124.5 40q85 0 126.5 -38.5t41.5 -116.5q0 -48 -21 -83.5
t-50.5 -58t-78.5 -52.5q-58 -34 -85.5 -60t-27.5 -65q0 -45 27.5 -63t84.5 -18h7q28 0 48 5v81zM789 654v-84h-105v-570h-104v266h-194v84h194v220h-113v84h322z" />
    <glyph glyph-name="uni0915094D0937094D" horiz-adv-x="595" 
d="M316 194h104v-249h-104v85q-27 -6 -60 -6h-7q-102 0 -153 38.5t-51 125.5q0 48 20 81.5t49.5 55t75.5 47.5q40 23 63.5 40t39 40.5t15.5 55.5q0 38 -15 57t-49 19q-64 0 -64 -80v-50h-104v54q1 75 43.5 115t124.5 40q85 0 126.5 -38.5t41.5 -116.5q0 -48 -21 -83.5
t-50.5 -58t-78.5 -52.5q-58 -34 -85.5 -60t-27.5 -65q0 -45 27.5 -63t84.5 -18h7q28 0 48 5v81zM662 339v-84h-244v84h244z" />
    <glyph glyph-name="uni0915094D0937094D0930" horiz-adv-x="879" 
d="M316 194h104v-249h-104v85q-27 -6 -60 -6h-7q-102 0 -153 38.5t-51 125.5q0 48 20 81.5t49.5 55t75.5 47.5q40 23 63.5 40t39 40.5t15.5 55.5q0 38 -15 57t-49 19q-64 0 -64 -80v-50h-104v54q1 75 43.5 115t124.5 40q85 0 126.5 -38.5t41.5 -116.5q0 -48 -21 -83.5
t-50.5 -58t-78.5 -52.5q-58 -34 -85.5 -60t-27.5 -65q0 -45 27.5 -63t84.5 -18h7q28 0 48 5v81zM889 654v-84h-105v-570h-104v185l-161 -202l-73 58l208 241h-268v84h294v204h-208v84h417z" />
    <glyph glyph-name="uni0915094D0937094D0072" horiz-adv-x="595" 
d="M316 194h104v-249h-104v85q-27 -6 -60 -6h-7q-102 0 -153 38.5t-51 125.5q0 48 20 81.5t49.5 55t75.5 47.5q40 23 63.5 40t39 40.5t15.5 55.5q0 38 -15 57t-49 19q-64 0 -64 -80v-50h-104v54q1 75 43.5 115t124.5 40q85 0 126.5 -38.5t41.5 -116.5q0 -48 -21 -83.5
t-50.5 -58t-78.5 -52.5q-58 -34 -85.5 -60t-27.5 -65q0 -45 27.5 -63t84.5 -18h7q28 0 48 5v81zM680 366v-169l-161 -214l-74 55l192 244h-251v84h294z" />
    <glyph glyph-name="uni0915094D0072" horiz-adv-x="567" 
d="M644 241h-184v-241h-104v141l-260 -180l-51 75l132 82q-74 9 -109 46.5t-35 117.5q0 91 47 129t147 38h12q15 0 32 -1.5t28 -3.5v-83q-34 4 -54 4h-12q-48 0 -72 -18t-24 -65q0 -49 24.5 -65.5t80.5 -17.5h11q29 0 53.5 5.5t49.5 19.5v346h-366v84h597v-84h-127v-245h184
v-84z" />
    <glyph glyph-name="uni0916094D0930" horiz-adv-x="893" 
d="M903 570h-105v-570h-104v161l-199 -186l-64 63l135 117q-147 8 -147 147q0 73 41.5 110t107.5 37h12q27 0 57 -5v-83q-21 4 -42 4h-12q-27 0 -43.5 -13.5t-16.5 -49.5q0 -38 18.5 -50.5t59.5 -12.5h15q42 0 78 16v315h-314v-175q0 -88 -47 -122.5t-147 -34.5h-6v-43
q0 -62 30 -86.5t102 -24.5h80v-84h-80q-114 0 -175 41.5t-61 153.5v234h104v-107h6q48 0 69 14t21 59v175h-286v84h913v-84z" />
    <glyph glyph-name="uni0916094D0072" horiz-adv-x="658" 
d="M210 108.5q30 -24.5 102 -24.5h80v-84h-80q-114 0 -175 41.5t-61 153.5v234h104v-107h6q48 0 69 14t21 59v175h-286v84h678v-84h-288v-175q0 -88 -47 -122.5t-147 -34.5h-6v-43q0 -62 30 -86.5zM720 185l-3 -1l3 -6l-225 -203l-64 63l140 117q-152 5 -152 147
q0 73 41.5 110t107.5 37h12q27 0 57 -5v-83q-21 4 -42 4h-12q-27 0 -43.5 -13.5t-16.5 -49.5q0 -38 18.5 -50.5t59.5 -12.5h15q55 0 104 29v-83z" />
    <glyph glyph-name="uni0917094D0928" horiz-adv-x="675" 
d="M685 654v-84h-105v-570h-104v248l-144 -91q-12 -8 -17.5 -15t-5.5 -16q0 -14 12 -21.5t33 -7.5q16 0 24 2l3 -84q-25 -5 -50 -5q-54 0 -89.5 30.5t-35.5 79.5q0 30 18.5 54.5t57.5 49.5l194 122v224h-190v-200q0 -130 -111 -130q-50 0 -84 25t-56 80l78 42
q13 -32 24.5 -47.5t24.5 -15.5q12 0 16 10.5t4 35.5v200h-192v84h695z" />
    <glyph glyph-name="uni0917094D0930" horiz-adv-x="675" 
d="M685 654v-84h-105v-570h-104v225l-276 -234l-61 69l337 283v227h-190v-200q0 -130 -111 -130q-50 0 -84 25t-56 80l78 42q13 -32 24.5 -47.5t24.5 -15.5q12 0 16 10.5t4 35.5v200h-192v84h695z" />
    <glyph glyph-name="uni0918094D0930" horiz-adv-x="591" 
d="M621 654v-84h-105v-570h-104v136l-260 -175l-53 73l132 80q-73 8 -108 44t-35 110q0 85 54 119q-46 14 -68 42.5t-22 76.5q0 38 13 64h-75v84h631zM214.5 212q22.5 -15 72.5 -16h18q61 0 107 28v346h-241q-15 -21 -15 -55q1 -48 31.5 -63.5t99.5 -15.5h34v-20h5v-64h-39
q-48 0 -71.5 -16t-23.5 -62q0 -47 22.5 -62z" />
    <glyph glyph-name="uni0918094D0072" horiz-adv-x="370" 
d="M454 257v-97l-300 -227l-58 68l159 112q-85 4 -126 40t-41 115q0 85 54 119q-46 14 -68 42.5t-22 76.5q0 38 13 64h-75v84h390v-84h-209q-15 -21 -15 -55q1 -48 31.5 -63.5t99.5 -15.5h34v-20h5v-64h-39q-48 0 -71.5 -16t-23.5 -62q0 -47 22.5 -62t72.5 -16h18
q88 0 149 61z" />
    <glyph glyph-name="uni0919094D0915" horiz-adv-x="709" 
d="M719 654v-84h-248v-104h-3v-52h-244q-31 0 -45.5 -8t-14.5 -27q0 -12 5.5 -21.5t13.5 -14.5h166q189 0 189 -130q0 -58 -39 -92t-113 -44v-61q45 19 95 19h11q78 0 118 -31t40 -99q0 -65 -38.5 -97t-105.5 -32h-12q-33 0 -55 4v78q24 -3 44 -3h12q56 0 56 50
q0 30 -17 40.5t-53 10.5h-11q-47 0 -84 -18v-232h-104v89q-44 -19 -94 -19h-11q-78 0 -118 30.5t-40 98.5q0 66 38.5 98t105.5 32h12q33 0 55 -4v-79q-21 4 -44 4h-12q-56 0 -56 -51q0 -28 17 -39t53 -11h11q45 0 83 17v201q-81 3 -141.5 19.5t-112.5 49.5l39 81
q56 -37 111.5 -51.5t125.5 -14.5h18q112 0 112 50q0 28 -21 40t-64 12h-219q-25 18 -47.5 54.5t-22.5 74.5q0 58 41.5 84t127.5 26h138v72h-377v84h729zM538 365l74 74l74 -74l-74 -73z" />
    <glyph glyph-name="uni0919094D0915094D" horiz-adv-x="709" 
d="M719 570h-248v-104h-3v-52h-244q-31 0 -45.5 -8t-14.5 -27q0 -12 5.5 -21.5t13.5 -14.5h166q189 0 189 -130q0 -58 -39 -92t-113 -44v-120h323v-84h-323v-167h-104v89q-44 -19 -94 -19h-11q-78 0 -118 30.5t-40 98.5q0 66 38.5 98t105.5 32h12q33 0 55 -4v-79
q-21 4 -44 4h-12q-56 0 -56 -51q0 -28 17 -39t53 -11h11q45 0 83 17v201q-81 3 -141.5 19.5t-112.5 49.5l39 81q56 -37 111.5 -51.5t125.5 -14.5h18q112 0 112 50q0 28 -21 40t-64 12h-219q-25 18 -47.5 54.5t-22.5 74.5q0 58 41.5 84t127.5 26h138v72h-377v84h729v-84z
M538 365l74 74l74 -74l-74 -73z" />
    <glyph glyph-name="uni0919094D0915094D0937" horiz-adv-x="731" 
d="M741 654v-84h-247v-104h-4v-52h-244q-31 0 -45.5 -8t-14.5 -27q0 -12 5.5 -21.5t13.5 -14.5h166q189 0 189 -130q0 -43 -21 -72v-435h-93v162h-140v84h140v132q-47 -11 -102 -11h-11h-21q7 -21 7 -40q0 -33 -16.5 -58t-40 -41t-60.5 -36q-39 -21 -57 -36t-18 -35
q0 -25 19 -34.5t56 -9.5h6q20 0 29 1v54h94v-175h-94v43q-24 -2 -39 -2h-6q-72 0 -115 30.5t-43 88.5q0 34 15.5 58t37.5 39.5t58 34.5q42 23 61.5 40t19.5 43q0 43 -41 43q-19 0 -30 -11.5t-11 -34.5v-29h-93v31q0 53 37 84q-21 10 -38 21l39 81q56 -37 112 -51.5
t125 -14.5h18q112 0 112 50q0 28 -21 40t-64 12h-219q-25 18 -47.5 54.5t-22.5 74.5q0 58 41.5 84t127.5 26h139v72h-400v84h751zM634 439l74 -74l-74 -73l-74 73z" />
    <glyph glyph-name="uni0919094D0916" horiz-adv-x="763" 
d="M773 654v-84h-247v-104h-4v-52h-244q-31 0 -45.5 -8t-14.5 -27q0 -12 5.5 -21.5t13.5 -14.5h166q189 0 189 -130q0 -31 -12 -57v-450h-94v87q-24 -10 -58 -10h-10q-59 0 -92.5 29.5t-33.5 91.5q0 61 32.5 91.5t88.5 30.5h8q13 0 31 -3v-78q-10 2 -22 2h-5q-20 0 -30 -10
t-10 -33q0 -24 11.5 -33.5t37.5 -9.5h6q25 0 46 10v215q-45 -13 -110 -13h-11q-48 0 -96 5v-106q0 -56 -34.5 -78.5t-108.5 -22.5h-15v-5q0 -48 18.5 -64.5t65.5 -16.5h124v-79h-119q-89 0 -135.5 34t-46.5 126v157h93v-74h20q22 0 33 8.5t11 34.5v107q-50 16 -93 43l39 81
q56 -37 112 -51.5t125 -14.5h18q112 0 112 50q0 28 -21 40t-64 12h-219q-25 18 -47.5 54.5t-22.5 74.5q0 58 41.5 84t127.5 26h139v72h-432v84h783zM666 439l74 -74l-74 -73l-74 73z" />
    <glyph glyph-name="uni0919094D0917" horiz-adv-x="709" 
d="M719 654v-84h-247v-104h-4v-52h-244q-31 0 -45.5 -8t-14.5 -27q0 -12 5.5 -21.5t13.5 -14.5h166q189 0 189 -130q0 -65 -49 -100v-407h-104v371q-25 -4 -63 -4h-11q-22 0 -56 2v-114q0 -130 -111 -130q-50 0 -84 25t-56 80l78 42q13 -32 24.5 -47.5t24.5 -15.5
q12 0 16 10.5t4 35.5v129q-64 15 -123 52l39 81q56 -37 112 -51.5t125 -14.5h18q112 0 112 50q0 28 -21 40t-64 12h-219q-25 18 -47.5 54.5t-22.5 74.5q0 58 41.5 84t127.5 26h139v72h-378v84h729zM612 439l74 -74l-74 -73l-74 73z" />
    <glyph glyph-name="uni0919094D0918" horiz-adv-x="734" 
d="M744 654v-84h-248v-104h-3v-52h-244q-31 0 -45.5 -8t-14.5 -27q0 -12 5.5 -21.5t13.5 -14.5h166q189 0 189 -130q0 -56 -39 -92v-415h-104v61q-53 -22 -108 -22h-18q-82 0 -125.5 28t-43.5 97q0 56 37 82q-69 25 -69 94q0 36 22 64q-34 14 -62 32l39 81
q56 -37 111.5 -51.5t125.5 -14.5h18q112 0 112 50q0 28 -21 40t-64 12h-219q-25 18 -47.5 54.5t-22.5 74.5q0 58 41.5 84t127.5 26h138v72h-402v84h754zM637 439l74 -74l-74 -73l-74 73zM420 78q-37 -5 -74 -5h-11q-74 0 -127 10q-11 -12 -11 -35q0 -29 24 -40.5t68 -11.5
h49v-15h5v-59h-49q-65 0 -65 -45q0 -28 19 -38t55 -10h18q55 0 99 25v224z" />
    <glyph glyph-name="uni0919094D092E" horiz-adv-x="889" 
d="M899 654v-84h-105v-864h-104v238h-219v-92h-104v225q-25 -4 -61 -4h-11q-87 0 -151.5 17t-120.5 52l39 81q55 -36 108.5 -51t118.5 -15h18q92 0 92 49q0 28 -21 40.5t-64 12.5h-189q-25 18 -47.5 54.5t-22.5 74.5q0 58 41.5 84t127.5 26h108v72h-342v84h909zM690 29v541
h-254v-104h-3v-52h-219q-29 0 -42 -8t-13 -27q0 -12 5.5 -21.5t13.5 -14.5h136q189 0 189 -130q0 -54 -32 -89v-95h219zM646 365l-74 -73l-74 73l74 74z" />
    <glyph glyph-name="uni0919094D0930" horiz-adv-x="608" 
d="M618 654v-84h-202v-126h-3v-52h-189q-33 0 -49 -10.5t-16 -37.5q0 -16 6.5 -29.5t15.5 -20.5h113q189 0 189 -148q0 -61 -29 -99t-85 -52l132 -100l-63 -72l-170 130l-169 -130l-63 72l135 103q-75 16 -148 63l39 80q54 -35 102.5 -52t103.5 -18h1h10h13q87 0 87 68
q0 37 -21.5 54t-63.5 17h-167q-26 19 -49 58.5t-23 83.5q0 68 40.5 96t128.5 28h88v94h-322v84h628zM526 405l74 -74l-74 -73l-74 73z" />
    <glyph glyph-name="uni091A094D091A" horiz-adv-x="947" 
d="M957 654v-84h-105v-570h-104v127q-48 -19 -104 -19h-24q-98 0 -148 37q-71 -37 -154 -37h-18q-98 0 -150 38.5t-52 123.5q0 65 36 106h-100v84h642v-84h-110q-21 -14 -32 -37t-11 -60q0 -51 28 -69t85 -18h18q52 0 94 21v357h-758v84h967zM333 192q49 0 92 24
q-6 24 -6 54q0 65 36 106h-210q-21 -15 -32 -37.5t-11 -59.5q0 -51 28 -69t86 -18h17z" />
    <glyph glyph-name="uni091A094D0930" horiz-adv-x="606" 
d="M636 654v-84h-105v-570h-104v127l-1 -1l-245 -165l-54 73l126 76q-75 9 -115 47t-40 113q0 65 36 106h-100v84h321v-84h-110q-21 -15 -32 -37.5t-11 -59.5q0 -51 28 -69t86 -18h17q52 0 94 21v357h-437v84h646z" />
    <glyph glyph-name="uni091A094D0072" horiz-adv-x="393" 
d="M403 570h-413v84h413v-84zM476 152q-26 -16 -40 -21l-251 -170l-54 73l125 76q-77 8 -117.5 46.5t-40.5 113.5q0 65 36 106h-100v84h321v-84h-110q-21 -15 -32 -37.5t-11 -59.5q0 -51 28 -69t86 -18h17q40 0 74.5 12.5t68.5 41.5v-94z" />
    <glyph glyph-name="uni091B094D0928" horiz-adv-x="741" 
d="M626 570v-60q24 -13 34.5 -37.5t10.5 -62.5v-106q0 -99 -55 -157v-441h-104v206h-183q-21 0 -29.5 -6t-8.5 -23q0 -30 52 -52l-42 -72q-58 22 -84 54t-26 80q0 103 133 103h188v90q-58 -18 -142 -18h-12q-121 0 -197 41t-76 130q0 95 74 126q-49 14 -70 43t-21 74
q0 55 37 88h-115v84h761v-84h-125zM522 570h-271q-38 -13 -58.5 -31.5t-20.5 -51.5q1 -40 32 -57.5t99 -17.5h33v-84h-26q-62 0 -91.5 -18.5t-29.5 -63.5q0 -51 45.5 -72.5t124.5 -21.5h13q195 0 195 153v106q0 17 -5.5 23.5t-22.5 6.5q-16 0 -22.5 -7t-6.5 -23v-66h-94v70
q0 51 24.5 77t81.5 31v47z" />
    <glyph glyph-name="uni091B094D0930" horiz-adv-x="741" 
d="M626 570v-65q24 -13 34.5 -36t10.5 -59v-131q0 -225 -215 -260l135 -102l-63 -72l-169 131l-169 -131l-63 72l136 103q-83 14 -130.5 56.5t-47.5 120.5q0 111 76 145q-49 15 -71 46.5t-22 80.5q0 64 40 101h-118v84h761v-84h-125zM522 570h-269q-39 -14 -60 -36t-21 -60
q1 -46 32 -65t99 -19h33v-84h-26q-62 0 -91.5 -23.5t-29.5 -80.5q0 -58 48.5 -81.5t121.5 -23.5h12q196 0 196 182v127q0 17 -5.5 23.5t-22.5 6.5q-16 0 -22.5 -7t-6.5 -23v-101h-94v105q0 51 24.5 77t81.5 31v52z" />
    <glyph glyph-name="uni091B094D0935" horiz-adv-x="741" 
d="M626 570v-60q24 -13 34.5 -37.5t10.5 -62.5v-106q0 -133 -99 -192v-406h-104v79q-45 -19 -94 -19h-12q-77 0 -117.5 30.5t-40.5 98.5q0 66 38.5 98t105.5 32h12q33 0 55 -4v-79q-20 4 -44 4h-12q-56 0 -56 -51q0 -28 17.5 -39t52.5 -11h11q46 0 84 17v214q-41 -8 -97 -8
h-13q-121 0 -197 41t-76 130q0 95 74 126q-49 14 -70 43t-21 74q0 55 37 88h-115v84h761v-84h-125zM522 570h-271q-38 -13 -58.5 -31.5t-20.5 -51.5q1 -40 32 -57.5t99 -17.5h33v-84h-26q-62 0 -91.5 -18.5t-29.5 -63.5q0 -51 45.5 -72.5t124.5 -21.5h14q194 0 194 153v106
q0 17 -5.5 23.5t-22.5 6.5q-16 0 -22.5 -7t-6.5 -23v-66h-94v70q0 51 24.5 77t81.5 31v47z" />
    <glyph glyph-name="uni091B094D0072" horiz-adv-x="741" 
d="M626 570v-65q24 -13 34.5 -36t10.5 -59v-131q0 -225 -215 -260l135 -102l-63 -72l-169 131l-169 -131l-63 72l136 103q-83 14 -130.5 56.5t-47.5 120.5q0 111 76 145q-49 15 -71 46.5t-22 80.5q0 64 40 101h-118v84h761v-84h-125zM522 570h-269q-39 -14 -60 -36t-21 -60
q1 -46 32 -65t99 -19h33v-84h-26q-62 0 -91.5 -23.5t-29.5 -80.5q0 -58 48.5 -81.5t121.5 -23.5h12q196 0 196 182v127q0 17 -5.5 23.5t-22.5 6.5q-16 0 -22.5 -7t-6.5 -23v-101h-94v105q0 51 24.5 77t81.5 31v52zM357 -104l202 -156l-61 -69l-201 156z" />
    <glyph glyph-name="uni091C094D091E094D" horiz-adv-x="538" 
d="M548 570h-558v84h558v-84zM178 403.5q-16 -10.5 -16 -37.5q0 -16 6.5 -30t16.5 -21h105q181 0 181 -148q0 -79 -46.5 -119t-132.5 -40h-11q-69 0 -124 22v-85h-94v239h94v-69q52 -23 118 -23h13q38 0 58.5 17t20.5 51q0 37 -19 54t-58 17h-160q-26 19 -49 58.5t-23 83.5
q0 68 41 96.5t128 28.5h390v-84h-390q-33 0 -49 -10.5z" />
    <glyph glyph-name="uni091C094D091C" horiz-adv-x="1125" 
d="M1135 654v-84h-105v-570h-104v355h-89v-63q0 -99 -38.5 -144t-136.5 -45q-92 0 -131.5 46t-39.5 143v63h-91v-63q0 -99 -38.5 -144t-137.5 -45q-92 0 -131 46t-39 143v147h99v-154q0 -49 16 -73.5t55 -24.5q43 0 57.5 23t14.5 75v154h294v-154q0 -49 16 -73.5t56 -24.5
q43 0 57 23t14 75v154h193v131h-936v84h1145z" />
    <glyph glyph-name="uni091C094D091C094D" horiz-adv-x="926" 
d="M-10 654h946v-84h-946v84zM1003 335h-140v-63q0 -99 -38.5 -144t-137.5 -45q-92 0 -131 46t-39 143v63h-117v-63q0 -99 -38.5 -144t-137.5 -45q-92 0 -131 46t-39 143v147h99v-154q0 -49 16 -73.5t55 -24.5q43 0 57.5 23t14.5 75v154h320v-154q0 -49 16 -73.5t55 -24.5
q43 0 57.5 23t14.5 75v154h244v-84z" />
    <glyph glyph-name="uni091C094D091E" horiz-adv-x="691" 
d="M701 654v-84h-105v-570h-104v390h-129q35 -43 35 -115q-1 -96 -60 -141t-176 -46v-103h-94v239h94v-52q70 1 100.5 24.5t31.5 84.5q-1 64 -33 86.5t-102 22.5h-91v84h424v96h-502v84h711z" />
    <glyph glyph-name="uni091C094D091E094D.1" horiz-adv-x="479" 
d="M488 570h-498v84h498v-84zM546 390h-182q35 -42 36 -115q-1 -96 -60.5 -141t-175.5 -46v-103h-94v239h94v-52q70 1 100.5 24.5t31.5 84.5q-1 64 -33.5 86.5t-102.5 22.5h-91v84h477v-84z" />
    <glyph glyph-name="uni091C094D091E094D0930" horiz-adv-x="736" 
d="M746 654v-84h-105v-570h-104v122l-175 -141l-59 68l234 186v155h-173q35 -42 36 -115q-1 -96 -60.5 -141t-175.5 -46v-103h-94v239h94v-52q70 1 100.5 24.5t31.5 84.5q-1 64 -33.5 86.5t-102.5 22.5h-91v84h468v96h-547v84h756z" />
    <glyph glyph-name="uni091C094D0930" horiz-adv-x="738" 
d="M748 654v-84h-105v-570h-104v124l-177 -143l-59 68l236 188v133h-139v-63q0 -99 -38.5 -144t-137.5 -45q-92 0 -131 46t-39 143v147h99v-154q0 -49 16 -73.5t55 -24.5q43 0 57.5 23t14.5 75v154h243v116h-549v84h758z" />
    </font>
</defs>
</svg>
